<?xml version="1.0" standalone="no"?>
<!DOCTYPE svg PUBLIC "-//W3C//DTD SVG 1.1//EN" "http://www.w3.org/Graphics/SVG/1.1/DTD/svg11.dtd" >
<svg xmlns="http://www.w3.org/2000/svg">
<metadata>Generated by IcoMoon</metadata>
<defs>
<font id="icomoon" horiz-adv-x="1024">
<font-face units-per-em="1024" ascent="960" descent="-64" />
<missing-glyph horiz-adv-x="1024" />
<glyph unicode="&#x20;" horiz-adv-x="512" d="" />
<glyph unicode="&#xe900;" glyph-name="minus-circle" d="M255.98 484.519h-0.52c-20.202 0-36.563-16.362-36.563-36.563 0-20.242 16.362-36.563 36.563-36.563h513.039c20.202 0 36.563 16.362 36.563 36.563 0 20.242-16.362 36.563-36.563 36.563h-512.519zM512 960c-282.339 0-512-229.702-512-512 0-282.339 229.702-512 512-512 282.339 0 512 229.702 512 512 0 282.339-229.702 512-512 512zM512 886.834c242.82 0 438.87-196.091 438.87-438.87 0-242.82-196.060-438.87-438.87-438.87s-438.87 196.060-438.87 438.87c0 242.81 196.060 438.87 438.87 438.87z" />
<glyph unicode="&#xe901;" glyph-name="plus-circle" d="M255.98 484.519h-0.52c-20.202 0-36.563-16.362-36.563-36.563 0-20.242 16.362-36.563 36.563-36.563h513.039c20.202 0 36.563 16.362 36.563 36.563 0 20.242-16.362 36.563-36.563 36.563h-512.519zM548.56 703.98v0.52c0 20.202-16.362 36.563-36.563 36.563-20.242 0-36.563-16.362-36.563-36.563v-513.040c0-20.202 16.362-36.563 36.563-36.563 20.242 0 36.563 16.362 36.563 36.563v512.52zM512 960c-282.339 0-512-229.702-512-512 0-282.339 229.702-512 512-512 282.339 0 512 229.702 512 512 0 282.339-229.702 512-512 512zM512 886.834c242.82 0 438.87-196.091 438.87-438.87 0-242.82-196.060-438.87-438.87-438.87s-438.87 196.060-438.87 438.87c0 242.81 196.060 438.87 438.87 438.87z" />
<glyph unicode="&#xe902;" glyph-name="add-user" d="M457.856 746.661c47.465-0.583 76.642-40.979 99.904-60.539 24.104-20.258 13.314-54.519 17.224-96.117 1.807-19.32 13.809-5.413 21.629-30.988 5.915-19.272-1.312-70.518-17.026-88.394-15.467-17.611-14.254-67.198-39.521-86.012-26.95-20.041-43.803-5.004-2.475-85.916 20.837-40.829 157.343-26.008 184.218-61.712 18.302-24.252 20.335-74.642 20.561-85.541l0.028-2.108h-614.399l0.035 2.108c0.239 10.898 2.253 61.289 20.555 85.541 26.875 35.704 163.381 20.884 184.218 61.664 41.353 80.96 24.45 65.923-2.475 85.964-25.267 18.814-24.054 68.401-39.521 86.012-15.69 17.876-22.941 69.123-17.026 88.394 7.82 25.575 19.823 11.669 21.629 30.988 3.935 41.599 3.242 150.684 105.646 140.050 21.505 12.006 40.264 16.793 56.795 16.607zM819.209 559.998v-74.68h76.791v-74.68h-76.791v-74.656h-76.815v74.656h-76.791v74.68h76.791v74.68h76.815z" />
<glyph unicode="&#xe903;" glyph-name="alarm-clock" d="M550.106 789.333v-78.481c150.154-18.771 266.76-146.354 266.76-300.773 0-167.3-136.769-303.413-304.875-303.413s-304.875 136.113-304.875 303.413c0 154.419 116.631 282.002 266.784 300.773v0 78.481h76.207zM511.99 637.627c-126.086 0-228.644-102.091-228.644-227.547 0-125.481 102.558-227.572 228.644-227.572s228.669 102.091 228.669 227.572c0 125.457-102.583 227.547-228.669 227.547zM550.101 561.764v-113.774h76.231v-75.841h-152.438v189.615h76.207zM246.873 787.693l53.882-53.624-76.207-75.865-53.882 53.648 76.207 75.841zM777.102 787.688l76.231-75.841-53.882-53.624-76.231 75.841 53.882 53.624z" />
<glyph unicode="&#xe904;" glyph-name="alert" d="M883.797 267.712l-271.79 483.145c-29.179 51.857-70.107 80.393-115.246 80.393-45.179 0-86.107-28.536-115.282-80.393l-271.753-483.145c-29.036-51.643-32.25-101.897-9.071-141.568 23.179-39.607 68.607-61.429 127.854-61.429h536.503c59.286 0 104.677 21.821 127.854 61.429 23.179 39.643 19.964 89.928-9.071 141.568h0.003zM838.297 158.107c-11.215-19.143-37.893-30.072-73.25-30.072h-536.503c-35.357 0-62.072 11-73.25 30.072-11.215 19.179-7.679 47.822 9.607 78.608l271.753 483.145c17.25 30.608 39.142 48.143 60.143 48.143s42.893-17.536 60.071-48.143l271.753-483.145c17.321-30.786 20.821-59.429 9.679-78.608h-0.004zM496.762 290.889c-23 0-41.643-18.643-41.643-41.643 0-23.035 18.643-41.714 41.643-41.714 23.035 0 41.679 18.643 41.679 41.714 0 22.964-18.643 41.643-41.679 41.643zM496.762 592.75c-23 0-41.643-18.643-41.643-41.643 0-1.25 0.25-2.357 0.321-3.536h-0.214l16.607-201.819h0.143c1.071-12.785 11.714-22.928 24.785-22.928 13.107 0 23.715 10.107 24.821 22.928h0.143l16.607 201.819h-0.214c0.107 1.179 0.321 2.286 0.321 3.536 0 22.964-18.643 41.643-41.679 41.643h0.001z" />
<glyph unicode="&#xe905;" glyph-name="minus" d="M856.086 408h-688.173v80h688.173v-80z" />
<glyph unicode="&#xe906;" glyph-name="location" d="M960.001 512h-69.436c-13.312 78.625-50.75 151.124-107.062 207.503-56.374 56.312-128.874 93.75-207.503 107.062v69.436c0 35.374-28.625 64-64 64s-64-28.625-64-64v-69.436c-78.625-13.312-151.124-50.75-207.503-107.062-56.312-56.374-93.75-128.874-107.062-207.503h-69.436c-35.374 0-64-28.625-64-64s28.625-64 64-64h69.436c13.312-78.625 50.75-151.124 107.062-207.503 56.374-56.312 128.874-93.75 207.503-107.062v-69.436c0-35.374 28.625-64 64-64s64 28.625 64 64v69.436c78.625 13.312 151.124 50.75 207.503 107.062 56.312 56.374 93.75 128.874 107.062 207.503h69.436c35.374 0 64 28.625 64 64s-28.625 64-64 64zM512.005 192.002c-67.875 0-132.999 27-180.991 75s-75 113.124-75 180.991c0 67.867 27 132.999 75 180.991s113.124 75 180.991 75c67.867 0 132.999-27 180.991-75s75-113.124 75-180.991c0-67.867-27-132.999-75-180.991s-113.124-75-180.991-75z" />
<glyph unicode="&#xe907;" glyph-name="bed" horiz-adv-x="1076" d="M1076.004 337.325v23.057h-1.537c-7.686 87.617-61.486 161.402-136.807 199.83v189.070c0 29.206-24.594 53.8-53.8 53.8h-702.481c-29.206 0-53.8-24.594-53.8-53.8v-193.682c-76.857-43.040-127.583-124.51-127.583-218.276v-118.36c0-29.206 24.594-53.8 53.8-53.8h66.097v-49.189c0-12.297 10.76-23.057 23.057-23.057s23.057 10.76 23.057 23.057v49.189h747.058v-49.189c0-12.297 10.76-23.057 23.057-23.057s23.057 10.76 23.057 23.057v49.189h63.023c29.206 0 53.8 24.594 53.8 53.8v118.36c0 0 0 0 0 0zM173.694 749.283c0 4.611 3.074 7.686 7.686 7.686h704.017c4.611 0 7.686-3.074 7.686-7.686v-170.624c-18.446 4.611-36.892 7.686-55.337 9.223v78.396c0 29.206-24.594 53.8-53.8 53.8h-121.436c-29.206 0-53.8-24.594-53.8-53.8v-76.857h-124.51v76.857c0 29.206-24.594 53.8-53.8 53.8h-121.436c-29.206 0-53.8-24.594-53.8-53.8v-76.857h-4.611c-26.132 0-52.263-4.611-76.857-12.297v172.162zM791.629 664.74v-76.857h-136.807v76.857c0 4.611 3.074 7.686 7.686 7.686h121.436c3.074 0 7.686-3.074 7.686-7.686zM438.084 664.74v-76.857h-136.807v76.857c0 4.611 3.074 7.686 7.686 7.686h121.436c3.074 0 7.686-3.074 7.686-7.686zM249.014 541.767h576.434c104.526 0 190.607-78.396 202.905-179.847h-980.706c10.76 99.916 98.377 179.847 201.367 179.847zM1029.888 218.965c0-4.611-3.074-7.686-7.686-7.686h-968.407c-4.611 0-7.686 3.074-7.686 7.686v95.303h983.78v-95.303z" />
<glyph unicode="&#xe908;" glyph-name="pin-pink" horiz-adv-x="698" d="M349.091 960c-193.559 0-349.091-156.765-349.091-352.023 0-195.165 349.091-671.977 349.091-671.977s349.091 476.812 349.091 671.977c0 195.258-155.532 352.023-349.091 352.023z" />
<glyph unicode="&#xe909;" glyph-name="arrow-down-left" d="M213.576 715.467l88.94-0.041-0.182-414.207 445.447 445.447 62.886-62.886-445.447-445.447 414.187 0.203 0.041-88.94-566.113-0.263z" />
<glyph unicode="&#xe90a;" glyph-name="arrow-down-right" d="M810.424 715.467l-88.94-0.041 0.182-414.207-445.447 445.447-62.886-62.886 445.447-445.447-414.187 0.203-0.041-88.94 566.113-0.263z" />
<glyph unicode="&#xe90b;" glyph-name="arrow-down" d="M853.333 448.293l-53.673 53.622-249.74-249.951v537.369h-75.865v-537.369l-249.716 249.951-53.673-53.622 341.321-341.627z" />
<glyph unicode="&#xe90c;" glyph-name="arrow-left" d="M512.306 106.667l53.6 53.673-249.96 249.74h537.388v75.841h-537.388l249.96 249.74-53.6 53.673-341.639-341.346z" />
<glyph unicode="&#xe90d;" glyph-name="arrow-right" d="M511.707 789.333l-53.622-53.673 249.951-249.74h-537.369v-75.865h537.369l-249.951-249.716 53.622-53.673 341.627 341.321z" />
<glyph unicode="&#xe90e;" glyph-name="arrow-up-left" d="M213.597 180.515l88.922 0.061-0.182 414.235 445.462-445.478 62.868 62.87-445.462 445.478 414.221-0.182 0.061 88.925-566.153 0.243z" />
<glyph unicode="&#xe90f;" glyph-name="arrow-up-right" d="M810.403 180.515l-88.922 0.061 0.182 414.235-445.462-445.478-62.868 62.87 445.462 445.478-414.221-0.182-0.061 88.925 566.153 0.243z" />
<glyph unicode="&#xe910;" glyph-name="arrow-up" d="M170.667 447.694l53.673-53.6 249.74 249.96v-537.388h75.841v537.388l249.74-249.96 53.673 53.6-341.346 341.639z" />
<glyph unicode="&#xe911;" glyph-name="attach" d="M694.847 640.012v-307.21c0-105.868-82.038-191.988-182.859-191.988s-182.835 86.12-182.835 191.988v307.21c0 63.526 49.209 115.198 109.706 115.198s109.706-51.672 109.706-115.198v-307.21c0-21.159-16.403-38.407-36.576-38.407s-36.576 17.249-36.576 38.407v307.21h-73.129v-307.21c0-63.526 49.209-115.198 109.706-115.198 60.521 0 109.706 51.672 109.706 115.198v307.21c0 105.868-82.014 191.988-182.835 191.988s-182.859-86.12-182.859-191.988v-307.21c0-148.21 114.844-268.802 255.988-268.802s256.012 120.592 256.012 268.802v307.21h-73.153z" />
<glyph unicode="&#xe912;" glyph-name="back" d="M234.671 744.826h127.996c11.741 0 21.337-8.369 21.337-18.555v-225.692l397.242 244.677c2.502 0.909 5.224 1.411 8.084 1.411 11.823 0 21.337-8.297 21.337-18.555v-560.224c0-10.234-9.514-18.555-21.337-18.555-2.86 0-5.582 0.526-8.084 1.435l-397.242 244.653v-225.692c0-10.186-9.596-18.555-21.337-18.555h-127.996c-11.713 0-21.337 8.369-21.337 18.555v556.542c0 10.186 9.624 18.555 21.337 18.555z" />
<glyph unicode="&#xe913;" glyph-name="pin-orange" horiz-adv-x="698" d="M349.091 960c-193.559 0-349.091-156.765-349.091-352.023 0-195.165 349.091-671.977 349.091-671.977s349.091 476.812 349.091 671.977c0 195.258-155.532 352.023-349.091 352.023z" />
<glyph unicode="&#xe914;" glyph-name="bell" d="M592.329 182.531c0-41.916-35.946-75.864-80.329-75.864s-80.329 33.948-80.329 75.864v0zM511.987 789.333c132.527 0 240.961-102.407 240.961-227.569v0-208.578l100.385-132.738h-682.667l100.385 132.738v208.578c0 125.162 108.434 227.569 240.935 227.569z" />
<glyph unicode="&#xe915;" glyph-name="bin" d="M773.319 639.978v-565.337c0-10.567-8.397-10.641-18.67-10.641v0h-485.335c-10.249 0-18.67 0.074-18.67 10.641v0 565.337h522.676zM474.664 524.807h-37.341v-307.205h37.341v307.205zM586.662 524.807h-37.341v-307.205h37.341v307.205zM594.393 832l74.658-76.814h122.946c10.274 0 18.67-17.199 18.67-27.766v0-49.023h-597.333v49.023c0 10.567 8.397 27.766 18.67 27.766v0h122.922l74.658 76.814h164.81zM578.922 793.593h-133.869l-37.341-38.407h208.551l-37.341 38.407z" />
<glyph unicode="&#xe916;" glyph-name="calendar" d="M765.942 869.017h-9.273v36.658c0 29.868-23.882 54.325-53.047 54.325s-53.047-24.457-53.047-54.325v-36.658h-278.498v36.658c0 29.868-23.882 54.325-53.047 54.325s-53.047-24.457-53.047-54.325v-36.658h-9.273c-116.714 0-212.189-97.774-212.189-217.3v-498.417c0-119.526 95.474-217.3 212.189-217.3h510.579c116.714 0 212.189 97.774 212.189 217.3v498.417c-1.347 119.526-95.474 217.3-213.541 217.3h0.006zM256.716 760.367h9.273v-36.658c0-29.868 23.882-54.325 53.047-54.325s53.047 24.457 53.047 54.325v36.658h278.498v-36.658c0-29.868 23.882-54.325 53.047-54.325s53.047 24.457 53.047 54.325v36.658h9.273c58.331 0 106.094-48.914 106.094-108.65v-40.744h-721.415v40.744c0 59.736 47.712 108.65 106.094 108.65h-0.006zM765.942 44.65h-509.226c-58.331 0-106.094 48.914-106.094 108.65v349.024h722.768v-349.024c-1.347-59.789-49.058-108.65-107.442-108.65h-0.005zM735.427 257.861h-448.209c-29.165 0-53.047-24.457-53.047-54.325s23.882-54.325 53.047-54.325h446.909c29.165 0 53.047 24.457 53.047 54.325s-22.534 54.325-51.752 54.325h0.004zM362.81 302.693h298.39c29.165 0 53.047 24.457 53.047 54.325s-23.882 54.325-53.047 54.325h-298.39c-29.165 0-53.047-24.457-53.047-54.325s22.534-54.325 53.047-54.325z" />
<glyph unicode="&#xe917;" glyph-name="camera" d="M627.198 746.667l76.815-75.78h38.407v18.927c0 10.428 8.637 18.951 19.179 18.951v0h38.407c10.542 0 19.204-8.523 19.204-18.951v0-18.927h57.586c10.567 0 19.204-8.548 19.204-18.951v0-492.633c0-10.428-8.637-18.951-19.204-18.951v0h-729.593c-10.567 0-19.204 8.523-19.204 18.951v0 492.633c0 10.404 8.637 18.951 19.204 18.951v0h172.809l76.79 75.78h230.395zM512 595.106c-106.066 0-191.988-84.816-191.988-189.487s85.922-189.487 191.988-189.487c106.066 0 192.012 84.816 192.012 189.487s-85.947 189.487-192.012 189.487zM512 519.304c63.625 0 115.198-50.87 115.198-113.683 0-62.788-51.573-113.707-115.198-113.707s-115.198 50.919-115.198 113.707c0 62.812 51.573 113.683 115.198 113.683z" />
<glyph unicode="&#xe918;" glyph-name="chevron-down" d="M515.032 377.308l241.359 241.359 60.34-60.34-301.699-301.699-301.699 301.699 60.34 60.34z" />
<glyph unicode="&#xe919;" glyph-name="chevron-left" d="M454.692 437.647l241.359-241.359-60.34-60.34-301.699 301.699 301.699 301.699 60.34-60.34z" />
<glyph unicode="&#xe91a;" glyph-name="chevron-right" d="M575.372 437.647l-241.359-241.359 60.34-60.34 301.699 301.699-301.699 301.699-60.34-60.34z" />
<glyph unicode="&#xe91b;" glyph-name="chevron-up" d="M515.032 497.987l241.359-241.359 60.34 60.34-301.699 301.699-301.699-301.699 60.34-60.34z" />
<glyph unicode="&#xe91c;" glyph-name="clock" d="M512.004-63.999c256.69 0 465.452 204.157 465.452 455.030 0 123.097-50.443 234.717-131.871 316.686l17.586 17.193c17.201 16.816 17.201 44.14 0 60.956s-45.151 16.816-62.352 0l-22.604-22.098c-64.171 43.925-139.974 72.543-222.113 80.142v29.858h66.155c24.368 0 44.104 19.294 44.104 43.116s-19.736 43.116-44.104 43.116h-220.518c-24.368 0-44.104-19.294-44.104-43.116s19.736-43.116 44.104-43.116h66.155v-29.858c-236.071-21.827-421.349-216.546-421.349-452.878 0-250.943 208.833-455.032 465.452-455.032h0.004zM512.004 759.898c208.056 0 377.245-165.455 377.245-368.853s-169.245-368.798-377.245-368.798c-208 0-377.245 165.455-377.245 368.798s169.245 368.853 377.245 368.853zM504.244 323.88c38.499 0 69.818 33.7 69.818 75.128 0 25.437-11.869 47.867-29.922 61.498v192.807c0 23.719-17.853 42.93-39.896 42.93s-39.896-19.211-39.896-42.93v-192.807c-18.053-13.577-29.922-36.061-29.922-61.498 0-41.427 31.318-75.128 69.818-75.128z" />
<glyph unicode="&#xe91d;" glyph-name="cloud" d="M796.72 464.914c0 0.46 0.078 0.894 0.078 1.353 0 131.084-109.085 237.733-243.195 237.733-105.768 0-195.705-66.435-229.141-158.761-108.85-3.089-196.463-90.538-196.463-197.825 0-109.228 91.061-198.081 202.967-198.081h445.561c89.389 0 162.139 71.082 162.139 158.454 0 80.708-62.039 147.348-141.946 157.127z" />
<glyph unicode="&#xe91e;" glyph-name="cog" d="M533.346 325.921c-55.651 0-100.733 45.16-100.733 100.733 0 55.651 45.082 100.759 100.733 100.759 55.573 0 100.733-45.108 100.733-100.759 0-55.573-45.16-100.733-100.733-100.733v0zM896 366.224v120.885l-89.826 9.972c-6.648 25.865-16.854 50.276-30.098 72.738l56.43 70.531-85.489 85.489-70.505-56.43c-22.489 13.27-46.874 23.424-72.764 30.124l-9.946 89.8h-120.911l-9.972-89.8c-25.917-6.7-50.301-16.854-72.738-30.124l-70.557 56.43-85.515-85.489 56.482-70.531c-13.27-22.437-23.424-46.874-30.124-72.738l-89.8-9.972v-120.885l89.8-9.972c6.7-25.917 16.854-50.301 30.124-72.738l-56.482-70.557 85.515-85.489 70.557 56.456c22.437-13.27 46.822-23.45 72.738-30.098l9.972-89.826h120.911l9.946 89.826c25.891 6.648 50.276 16.828 72.713 30.098l70.557-56.456 85.489 85.489-56.43 70.557c13.296 22.437 23.45 46.822 30.098 72.738l89.826 9.972z" />
<glyph unicode="&#xe91f;" glyph-name="comment" d="M625.786 410.069c-20.946 0-37.933 16.986-37.933 37.931s16.987 37.931 37.933 37.931c20.946 0 37.933-16.986 37.933-37.931s-16.987-37.931-37.933-37.931zM512.012 410.069c-20.946 0-37.933 16.986-37.933 37.931s16.987 37.931 37.933 37.931c20.946 0 37.908-16.986 37.908-37.931s-16.962-37.931-37.908-37.931zM398.214 410.069c-20.922 0-37.908 16.986-37.908 37.931s16.987 37.931 37.908 37.931c20.946 0 37.933-16.986 37.933-37.931s-16.987-37.931-37.933-37.931zM512.012 789.333c-188.539 0-341.346-152.825-341.346-341.333 0-94.266 38.202-179.587 99.964-241.372l-99.964-99.961h341.346c188.539 0 341.321 152.801 341.321 341.333 0 188.508-152.782 341.333-341.321 341.333z" />
<glyph unicode="&#xe920;" glyph-name="crop" d="M360.313 296.306v303.413h303.424v-303.413h-303.424zM739.58 296.306v322.355c0 31.382-25.542 56.899-56.901 56.899h-322.366v113.774h-75.868v-113.774h-113.778v-75.841h113.778v-322.379c0-31.382 25.518-56.899 56.901-56.899h322.366v-113.774h75.868v113.774h113.753v75.865h-113.753z" />
<glyph unicode="&#xe921;" glyph-name="document" d="M885.141 665.21c0 0 0 0 0 0-1.551 3.103-3.103 4.654-4.654 7.758 0 0 0 0 0 0l-269.964 279.274c-4.654 4.654-10.861 7.758-17.067 7.758h-403.395c-29.479 0-54.303-24.824-54.303-54.303v-946.425c0-12.412 10.861-23.272 23.272-23.272h705.94c12.412 0 23.272 10.861 23.272 23.272v696.632c0 3.103-1.551 6.207-3.103 9.309zM551.564 908.797h27.928l262.206-262.206v-29.479h-290.134v291.686zM182.303-17.458v923.153c0 4.654 3.103 7.758 7.758 7.758h314.958v-318.060c0-12.412 10.861-23.272 23.272-23.272h313.407v-588.025h-659.395z" />
<glyph unicode="&#xe922;" glyph-name="drawer" d="M736.009 755.188v-499.181h-145.273c0-38.406-35.464-76.788-76.703-76.788-41.214 0-76.703 38.381-76.703 76.788h-149.339v499.181h448.018zM810.667 812.797c0 10.591-8.349 19.203-18.67 19.203h-559.992c-10.322 0-18.67-8.612-18.67-19.203v-729.594c0-10.591 8.349-19.203 18.67-19.203h559.992c10.322 0 18.67 8.612 18.67 19.203v729.594z" />
<glyph unicode="&#xe923;" glyph-name="dribble" d="M674.816 206.251c-2.901 17.579-18.517 103.125-56.661 208.213 94.080 15.019 175.573-10.752 181.589-12.757-12.928-81.195-59.435-151.296-124.928-195.456zM512 156.501c-70.613 0-135.253 25.088-185.685 66.773 3.84-3.072 6.485-5.077 6.485-5.077s55.936 121.899 228.779 182.101c0.64 0.256 1.237 0.427 1.92 0.597 41.003-106.581 57.984-195.797 62.251-221.312-34.944-14.891-73.429-23.083-113.749-23.083zM220.501 448.043c0 3.072 0.128 6.144 0.213 9.173 5.205-0.085 149.205-3.371 299.264 41.515 8.32-16.299 16.341-32.939 23.68-49.536-3.925-1.067-7.68-2.219-11.52-3.456-157.312-50.816-237.056-192.384-237.056-192.384s0.085-0.085 0.085-0.128c-46.421 51.627-74.667 119.893-74.667 194.816zM387.584 711.637c3.883-5.205 57.813-78.293 108.245-167.979-139.947-37.163-261.419-35.712-269.099-35.584 18.901 90.283 79.573 165.163 160.853 203.563zM704.469 666.752c-0.725-1.109-42.24-64.299-152.235-105.557-49.835 91.563-104.576 164.309-108.928 170.069 22.016 5.376 45.013 8.235 68.693 8.235 73.728 0 141.141-27.477 192.469-72.747zM803.413 450.901c-4.267 0.939-102.912 22.144-203.093 9.557-2.005 4.992-4.096 9.984-6.272 15.061-6.059 14.293-12.587 28.416-19.413 42.283 115.2 46.933 161.92 114.517 162.432 115.371 40.917-49.664 65.579-113.109 66.347-182.272zM846.336 516.693c-4.437 21.931-11.179 43.563-19.925 64.171-8.491 20.267-19.115 39.765-31.445 57.984-12.245 18.091-26.24 35.072-41.643 50.475-15.403 15.488-32.427 29.483-50.517 41.685-18.219 12.331-37.76 22.912-57.984 31.488-20.608 8.661-42.155 15.403-64.171 19.883-22.4 4.608-45.568 6.955-68.651 6.955-23.168 0-46.251-2.347-68.779-6.955-21.888-4.48-43.477-11.221-64.171-19.883-20.139-8.576-39.723-19.157-57.984-31.488-18.005-12.203-34.987-26.197-50.517-41.685-15.403-15.403-29.397-32.384-41.557-50.475-12.331-18.219-22.912-37.717-31.531-57.984-8.747-20.608-15.403-42.24-19.883-64.171-4.608-22.4-6.912-45.568-6.912-68.651 0-23.168 2.304-46.336 6.912-68.779 4.48-21.931 11.136-43.52 19.883-64.128 8.619-20.224 19.2-39.808 31.531-58.027 12.16-18.048 26.155-35.029 41.557-50.475 15.531-15.445 32.512-29.44 50.517-41.643 18.261-12.331 37.845-22.912 57.984-31.445 20.693-8.747 42.283-15.403 64.171-19.925 22.528-4.608 45.611-6.955 68.779-6.955 23.083 0 46.251 2.347 68.651 6.955 22.016 4.523 43.563 11.179 64.171 19.925 20.224 8.533 39.765 19.115 57.984 31.445 18.091 12.203 35.115 26.197 50.517 41.643s29.397 32.427 41.643 50.475c12.331 18.219 22.955 37.803 31.445 58.027 8.747 20.608 15.488 42.197 19.925 64.128 4.651 22.443 6.997 45.611 6.997 68.779 0 23.083-2.347 46.251-6.997 68.651z" />
<glyph unicode="&#xe924;" glyph-name="education" d="M985.484 650.206l-386.825 137.314c-6.699 3.349-15.071 3.349-21.77 0l-470.554-157.409c-13.396-5.023-23.444-16.745-23.444-31.817 0-6.699 1.674-13.396 5.023-18.421v-254.535l-80.379-80.379c-10.048-10.048-10.048-25.118 0-35.166l97.126-97.126c5.023-5.023 11.722-6.699 18.421-6.699s13.396 1.674 18.421 6.699l103.823 103.823c5.023 5.023 8.373 11.722 6.699 20.095 0 6.699-5.023 13.396-10.048 18.421l-102.149 72.006v229.415l125.592-43.539v-222.718c0-46.888 38.514-85.404 85.404-85.404h468.878c46.888 0 85.404 38.514 85.404 85.404v221.044l80.379 28.469c23.444 8.373 38.514 30.143 38.514 55.261s-15.071 46.888-38.514 55.261zM188.391 233.238l-65.309-65.309-60.284 60.284 55.261 55.261 70.331-50.236zM854.867 288.499c0-18.421-15.071-35.166-35.166-35.166h-468.878c-18.421 0-35.166 15.071-35.166 35.166v205.971l252.859-90.427c6.699-1.674 13.396-3.349 20.095-3.349s13.396 1.674 20.095 3.349l246.162 87.078v-202.623zM968.739 586.572l-378.451-133.966c-1.674 0-3.349 0-5.023 0l-415.293 145.688 418.642 140.663 380.128-135.64c5.023-1.674 5.023-5.023 5.023-8.373s0-6.699-5.023-8.373z" />
<glyph unicode="&#xe925;" glyph-name="email" d="M192.762-15.238h639.999c106.062 0 192 85.797 192 191.685v543.107c0 105.888-85.938 191.685-192 191.685h-639.999c-106.062 0-192-85.797-192-191.685v-543.107c0-105.888 85.938-191.685 192-191.685zM128.762 719.553c0 35.316 28.626 63.895 64 63.895h639.999c17 0 33.25-6.739 45.25-18.72s18.75-28.203 18.75-45.176v-28.765l-305.12-217.578c-47.374-33.008-110.375-33.008-157.751 0l-305.12 217.578-0.010 28.765zM128.762 533.795l230.752-164.545c44.688-31.885 98.312-49.044 153.249-49.044s108.563 17.159 153.249 49.044l230.752 164.545v-357.348c0-16.972-6.75-33.195-18.75-45.176s-28.249-18.72-45.25-18.72h-639.999c-35.374 0-64.003 28.579-64.003 63.895v357.348z" />
<glyph unicode="&#xe926;" glyph-name="eye-Closed" d="M231.96 746.667l614.383-627.214-54.294-55.453-134.102 136.902c-46.796-19.933-95.621-30.771-145.931-30.771-145.337 0-278.745 88.169-384.017 235.202 49.939 69.702 106.237 125.913 167.064 166.031v0l-117.398 119.849 54.294 55.453zM379.821 484.837c-13.512-23.293-21.406-50.426-21.406-79.504 0-86.603 68.746-156.81 153.602-156.81 28.459 0 54.987 8.11 77.828 21.929v0l-58.229 59.445c-6.286-1.743-12.794-2.981-19.599-2.981-42.416 0-76.813 35.192-76.813 78.417 0 6.973 1.188 13.642 2.846 20.059v0zM512.007 640.535c145.337 0 278.77-88.169 383.993-235.202-36.749-51.335-76.987-95.293-119.897-131.041v0l-111.483 113.811c0.619 5.659 0.99 11.419 0.99 17.23 0 86.603-68.771 156.81-153.602 156.81-5.692 0-11.334-0.379-16.877-1.011v0l-67.731 69.171c27.642 6.644 55.878 10.232 84.609 10.232z" />
<glyph unicode="&#xe927;" glyph-name="eye" d="M511.988 661.333c145.335 0 278.767-87.964 384.012-234.654-105.246-146.69-238.678-234.679-384.012-234.679-145.31 0-278.717 87.989-383.988 234.679 105.271 146.69 238.678 234.654 383.988 234.654zM511.988 583.124c-84.83 0-153.6-70.043-153.6-156.444s68.77-156.444 153.6-156.444c84.83 0 153.6 70.043 153.6 156.444s-68.77 156.444-153.6 156.444zM511.988 504.904c42.366 0 76.812-35.034 76.812-78.235 0-43.125-34.447-78.21-76.812-78.21-42.415 0-76.788 35.085-76.788 78.21 0 43.201 34.373 78.235 76.788 78.235z" />
<glyph unicode="&#xe928;" glyph-name="facebook" d="M658.603 568.277h-108.075v70.869c0 26.581 17.664 32.811 30.080 32.811h76.203v116.992l-105.003 0.384c-116.523 0-143.019-87.253-143.019-143.061v-77.995h-67.456v-120.491h67.456v-341.12h141.739v341.12h95.659l12.416 120.491z" />
<glyph unicode="&#xe929;" glyph-name="filters" d="M436.154 334.217c49.541 0 91.555-31.676 107.148-75.867v0h291.065c10.412 0 18.966-8.53 18.966-18.942v0-37.933c0-10.437-8.554-18.967-18.966-18.967v0h-291.065c-15.593-44.166-57.607-75.842-107.148-75.842-49.566 0-91.555 31.676-107.197 75.842v0h-139.312c-10.436 0-18.966 8.53-18.966 18.967v0 37.933c0 10.412 8.53 18.942 18.966 18.942v0h139.312c15.642 44.19 57.631 75.867 107.197 75.867zM436.154 277.317c-31.431 0-56.898-25.468-56.898-56.875 0-31.432 25.467-56.9 56.898-56.9 31.406 0 56.898 25.468 56.898 56.9 0 31.407-25.492 56.875-56.898 56.875zM663.698 561.756c49.566 0 91.555-31.652 107.173-75.842v0h63.497c10.412 0 18.966-8.53 18.966-18.942v0-37.933c0-10.437-8.554-18.967-18.966-18.967v0h-63.497c-15.618-44.166-57.607-75.867-107.173-75.867-49.541 0-91.555 31.701-107.173 75.867v0h-366.88c-10.436 0-18.966 8.53-18.966 18.967v0 37.933c0 10.412 8.53 18.942 18.966 18.942v0h366.88c15.618 44.19 57.631 75.842 107.173 75.842zM663.698 504.88c-31.431 0-56.898-25.468-56.898-56.875 0-31.432 25.467-56.9 56.898-56.9 31.406 0 56.898 25.468 56.898 56.9 0 31.407-25.492 56.875-56.898 56.875zM360.302 789.333c49.541 0 91.555-31.676 107.173-75.867v0h366.88c10.436 0 18.966-8.53 18.966-18.942v0-37.933c0-10.437-8.53-18.967-18.966-18.967v0h-366.88c-15.618-44.19-57.631-75.867-107.173-75.867-49.566 0-91.555 31.676-107.173 75.867v0h-63.497c-10.412 0-18.966 8.53-18.966 18.967v0 37.933c0 10.412 8.554 18.942 18.966 18.942v0h63.497c15.618 44.19 57.607 75.867 107.173 75.867zM360.302 732.433c-31.431 0-56.898-25.468-56.898-56.875 0-31.432 25.467-56.9 56.898-56.9 31.406 0 56.898 25.468 56.898 56.9 0 31.407-25.492 56.875-56.898 56.875z" />
<glyph unicode="&#xe92a;" glyph-name="pin-blue" horiz-adv-x="698" d="M349.091 960c-193.559 0-349.091-156.765-349.091-352.023 0-195.165 349.091-671.977 349.091-671.977s349.091 476.812 349.091 671.977c0 195.258-155.532 352.023-349.091 352.023z" />
<glyph unicode="&#xe92b;" glyph-name="virtual-tour" horiz-adv-x="1728" d="M1641.577 960h-1555.151c-47.708 0-86.425-38.24-86.425-85.36v-853.276c0-22.641 9.153-44.4 25.353-60.399s38.149-24.963 61.072-24.963h604.808c22.923-0.158 45.035 8.802 61.314 24.721l111.452 110.96 111.452-110.96c16.281-15.92 38.394-24.879 61.314-24.721h604.808c22.923 0 44.873 8.962 61.072 24.963s25.353 37.761 25.353 60.399v853.276c0 22.641-9.153 44.4-25.353 60.399s-38.149 24.961-61.072 24.961zM1555.155 106.643h-482.909l-146.929 145.919c-16.199 16.16-38.313 25.28-61.314 25.28s-45.116-9.12-61.314-25.28l-146.929-145.919h-482.905v682.719h1382.302v-682.719zM1209.535 191.999h0.081c104.811 0 199.335 62.404 239.431 158.003 40.094 95.68 17.981 205.844-56.211 279.039-74.112 73.199-185.565 95.119-282.436 55.439-96.873-39.6-159.969-132.96-159.969-236.482 0-141.359 115.989-255.999 259.192-255.999h-0.087zM1209.535 533.364h0.081c34.91 0 66.417-20.801 79.783-52.721 13.365-31.84 5.994-68.561-18.71-92.96s-61.883-31.76-94.201-18.48c-32.237 13.2-53.296 44.321-53.296 78.801 0 47.12 38.717 85.36 86.425 85.36h-0.082zM518.384 191.999c104.892 0 199.335 62.404 239.514 158.003 40.094 95.68 17.9 205.844-56.211 279.039-74.112 73.199-185.565 95.119-282.436 55.439-96.873-39.6-160.052-132.96-160.052-236.482 0-141.359 116.070-255.999 259.192-255.999h-0.006zM518.384 533.364c34.991 0 66.498-20.801 79.864-52.721 13.365-31.84 5.994-68.561-18.71-92.96s-61.883-31.76-94.201-18.48c-32.237 13.2-53.296 44.321-53.296 78.801 0 47.12 38.636 85.36 86.344 85.36h-0.001z" />
<glyph unicode="&#xe92c;" glyph-name="flickr" d="M322.091 618.667c83.584 0 151.424-67.797 151.424-151.381s-67.84-151.381-151.424-151.381c-83.627 0-151.424 67.797-151.424 151.381s67.797 151.381 151.424 151.381zM701.926 618.667c83.627 0 151.424-67.797 151.424-151.381s-67.797-151.381-151.424-151.381c-83.584 0-151.381 67.797-151.381 151.381s67.797 151.381 151.381 151.381z" />
<glyph unicode="&#xe92d;" glyph-name="folder" d="M128 168.003c0-10.249 8.661-18.67 19.203-18.67h729.594c10.542 0 19.203 8.421 19.203 18.67v448c0 10.249-8.661 18.646-19.203 18.646h-403.191l-115.194 112.018h-211.209c-10.542 0-19.203-8.397-19.203-18.67v-559.994z" />
<glyph unicode="&#xe92e;" glyph-name="forward" d="M790.853 744.694h-118.853c-10.902 0-19.813-8.966-19.813-19.88v-241.813l-368.867 262.154c-2.323 0.974-4.851 1.511-7.507 1.511-10.953 0-19.813-8.89-19.813-19.88v-600.24c0-10.965 8.86-19.88 19.813-19.88 2.655 0 5.183 0.564 7.507 1.537l368.867 262.128v-241.813c0-10.913 8.911-19.88 19.813-19.88h118.853c10.877 0 19.813 8.966 19.813 19.88v596.295c0 10.913-8.936 19.88-19.813 19.88z" />
<glyph unicode="&#xe92f;" glyph-name="shower" d="M682.194 811.282c-38.565 46.95-92.223 73.779-152.587 78.809-48.626 3.353-95.576-8.384-135.82-33.536l-65.395 72.101c-26.828 30.183-68.748 38.565-105.637 25.151-36.889-15.090-60.364-48.626-60.364-88.87v-903.788c0-13.414 11.737-25.151 25.151-25.151s25.151 11.737 25.151 25.151v902.111c0 23.475 15.090 36.889 28.506 41.92s35.212 5.030 50.303-11.737l63.719-68.748c-78.809-80.486-83.839-211.276-8.384-298.467 11.737-13.414 30.183-21.798 50.303-21.798 21.798 0 45.273 8.384 65.395 25.151l201.215 166.002c20.122 16.767 33.536 40.244 35.212 63.719 0 20.122-5.030 38.565-16.767 51.981zM646.98 764.332c-1.677-10.061-6.708-21.798-16.767-30.183l-201.215-166.002c-18.445-15.090-38.565-16.767-45.273-10.061-62.040 70.425-53.658 177.74 16.767 239.78 35.212 30.183 78.809 45.273 125.759 41.92s87.193-25.151 117.374-60.364c3.353-5.030 3.353-10.061 3.353-15.090zM657.040 470.895c-26.828 0-48.626 21.798-48.626 48.626s21.798 48.626 48.626 48.626c26.828 0 48.626-21.798 48.626-48.626s-21.798-48.626-48.626-48.626zM657.040 521.199c-1.677 0-1.677 0-1.677-1.677s3.353-1.677 3.353 0c0 1.677-1.677 1.677-1.677 1.677zM657.040 467.542c-28.506 0-51.981 23.475-51.981 51.981s23.475 51.981 51.981 51.981c28.506 0 51.981-23.475 51.981-51.981s-23.475-51.981-51.981-51.981zM657.040 564.796c-25.151 0-43.597-20.122-43.597-43.597 0-25.151 20.122-43.597 43.597-43.597 25.151 0 43.597 20.122 43.597 43.597s-20.122 43.597-43.597 43.597zM657.040 514.491c-3.353 0-6.708 1.677-6.708 5.030s3.353 6.708 6.708 6.708c3.353 0 6.708-3.353 6.708-6.708-1.677-3.353-3.353-5.030-6.708-5.030 0 0 0 0 0 0zM657.040 522.876v0c-1.677 0-1.677-1.677-1.677-3.353s5.030-3.353 5.030 0c-1.677 1.677-1.677 3.353-3.353 3.353zM672.133 326.693c-26.828 0-48.626 21.798-48.626 48.626s21.798 48.626 48.626 48.626c26.828 0 48.626-21.798 48.626-48.626s-21.798-48.626-48.626-48.626zM672.133 376.995c-1.677 0-1.677 0-1.677-1.677s3.353-1.677 3.353 0c0 1.677 0 1.677-1.677 1.677zM672.133 323.338c-28.506 0-51.981 23.475-51.981 51.981s23.475 51.981 51.981 51.981c28.506 0 51.981-23.475 51.981-51.981s-23.475-51.981-51.981-51.981zM672.133 420.592c-25.151 0-43.597-20.122-43.597-43.597 0-25.151 20.122-43.597 43.597-43.597 25.151 0 43.597 20.122 43.597 43.597s-20.122 43.597-43.597 43.597zM672.133 370.287c-3.353 0-6.708 1.677-6.708 5.030s3.353 6.708 6.708 6.708c3.353 0 6.708-3.353 6.708-6.708s-3.353-5.030-6.708-5.030zM672.133 378.672c-1.677 0-1.677-1.677-1.677-3.353 0-3.353 5.030-3.353 5.030 0-1.677 1.677-1.677 3.353-3.353 3.353zM809.629 440.714c-26.828 0-48.626 21.798-48.626 48.626s21.798 48.626 48.626 48.626c26.828 0 48.626-21.798 48.626-48.626s-21.798-48.626-48.626-48.626zM809.629 491.017c-1.677 0-1.677 0-1.677-1.677s3.353-1.677 3.353 0c0 1.677 0 1.677-1.677 1.677zM809.629 437.359c-28.506 0-51.981 23.475-51.981 51.981s23.475 51.981 51.981 51.981c28.506 0 51.981-23.475 51.981-51.981s-23.475-51.981-51.981-51.981zM809.629 534.613c-25.151 0-43.597-20.122-43.597-43.597 0-25.151 20.122-43.597 43.597-43.597 25.151 0 43.597 20.122 43.597 43.597 1.677 23.475-18.445 43.597-43.597 43.597zM809.629 484.309c-1.677 0-3.353 0-3.353 1.677-1.677 1.677-1.677 3.353-1.677 5.030 0 3.353 3.353 6.708 6.708 6.708s6.708-3.353 6.708-6.708c-1.677-5.030-5.030-6.708-8.384-6.708zM809.629 492.693c-1.677 0-1.677-1.677-1.677-3.353 0-3.353 5.030-3.353 5.030 0-1.677 1.677-1.677 3.353-3.353 3.353z" />
<glyph unicode="&#xe930;" glyph-name="gauge" d="M533.333 746.667c108.275 0 210.072-41.632 286.635-117.214 76.563-75.556 118.698-176.066 118.698-282.969 0-87.75-28.812-170.936-81.317-239.816v0l-57.938 57.151c37.694 53.232 58.2 116.338 58.2 182.666 0 85.507-33.723 165.91-94.979 226.386-61.23 60.45-142.652 93.756-229.298 93.756-86.594 0-168.068-33.306-229.298-93.756-61.23-60.476-94.953-140.879-94.953-226.386 0-66.328 20.48-129.433 58.147-182.691v0l-57.886-57.125c-52.531 68.854-81.344 152.067-81.344 239.816 0 106.903 42.161 207.413 118.724 282.969 76.537 75.582 178.334 117.214 286.609 117.214zM644.816 437.184c0 0-42.056-191.843-58.826-220.534s-53.968-38.513-83.041-21.937c-29.074 16.55-39.026 53.258-22.256 81.949 16.796 28.691 164.124 160.522 164.124 160.522zM290.146 386.659c22.386 0 40.515-17.916 40.515-40.008 0-22.066-18.129-40.008-40.515-40.008s-40.541 17.942-40.541 40.008c0 22.092 18.155 40.008 40.541 40.008zM776.559 386.666c22.36 0 40.515-17.916 40.515-40.008 0-22.066-18.155-40.008-40.515-40.008-22.413 0-40.541 17.942-40.541 40.008 0 22.092 18.129 40.008 40.541 40.008zM332.696 544.641c15.83 15.622 41.508 15.622 57.338 0 15.83-15.596 15.804-40.936 0-56.558-15.83-15.622-41.508-15.622-57.338 0-15.804 15.622-15.804 40.962 0 56.558zM676.667 544.652c15.83 15.622 41.482 15.622 57.311 0 15.804-15.596 15.83-40.936 0-56.558s-41.508-15.622-57.311 0c-15.83 15.622-15.83 40.936 0 56.558zM533.336 626.663c22.36 0 40.541-17.916 40.541-40.008s-18.181-39.982-40.541-39.982c-22.386 0-40.541 17.89-40.541 39.982s18.155 40.008 40.541 40.008z" />
<glyph unicode="&#xe931;" glyph-name="grid-2x2" d="M449.636 410.078c13.443 0 24.441-10.998 24.441-24.441v0-254.53c0-13.443-10.998-24.441-24.441-24.441v0h-254.529c-13.443 0-24.441 10.998-24.441 24.441v0 254.53c0 13.443 10.998 24.441 24.441 24.441v0zM828.892 410.078c13.443 0 24.441-10.998 24.441-24.441v0-254.53c0-13.443-10.998-24.441-24.441-24.441v0h-254.529c-13.443 0-24.441 10.998-24.441 24.441v0 254.53c0 13.443 10.998 24.441 24.441 24.441v0zM449.636 789.333c13.443 0 24.441-10.998 24.441-24.441v0-254.53c0-13.443-10.998-24.441-24.441-24.441v0h-254.529c-13.443 0-24.441 10.998-24.441 24.441v0 254.53c0 13.443 10.998 24.441 24.441 24.441v0zM828.892 789.333c13.443 0 24.441-10.998 24.441-24.441v0-254.53c0-13.443-10.998-24.441-24.441-24.441v0h-254.529c-13.443 0-24.441 10.998-24.441 24.441v0 254.53c0 13.443 10.998 24.441 24.441 24.441v0z" />
<glyph unicode="&#xe932;" glyph-name="grid-3x3" d="M303.406 258.372c10.412 0 18.966-8.53 18.966-18.966v0-113.773c0-10.436-8.554-18.966-18.966-18.966v0h-113.773c-10.436 0-18.966 8.53-18.966 18.966v0 113.773c0 10.436 8.53 18.966 18.966 18.966v0zM834.367 258.372c10.412 0 18.966-8.53 18.966-18.966v0-113.773c0-10.436-8.554-18.966-18.966-18.966v0h-113.773c-10.436 0-18.966 8.53-18.966 18.966v0 113.773c0 10.436 8.53 18.966 18.966 18.966v0zM568.882 258.372c10.436 0 18.966-8.53 18.966-18.966v0-113.773c0-10.436-8.53-18.966-18.966-18.966v0h-113.773c-10.412 0-18.966 8.53-18.966 18.966v0 113.773c0 10.436 8.554 18.966 18.966 18.966v0zM303.406 523.845c10.412 0 18.966-8.53 18.966-18.966v0-113.773c0-10.412-8.554-18.966-18.966-18.966v0h-113.773c-10.436 0-18.966 8.554-18.966 18.966v0 113.773c0 10.436 8.53 18.966 18.966 18.966v0zM834.367 523.845c10.412 0 18.966-8.53 18.966-18.966v0-113.773c0-10.412-8.554-18.966-18.966-18.966v0h-113.773c-10.436 0-18.966 8.554-18.966 18.966v0 113.773c0 10.436 8.53 18.966 18.966 18.966v0zM568.882 523.845c10.436 0 18.966-8.53 18.966-18.966v0-113.773c0-10.412-8.53-18.966-18.966-18.966v0h-113.773c-10.412 0-18.966 8.554-18.966 18.966v0 113.773c0 10.436 8.554 18.966 18.966 18.966v0zM303.406 789.331c10.412 0 18.966-8.53 18.966-18.966v0-113.773c0-10.436-8.554-18.966-18.966-18.966v0h-113.773c-10.436 0-18.966 8.53-18.966 18.966v0 113.773c0 10.436 8.53 18.966 18.966 18.966v0zM834.362 789.333c10.436 0 18.966-8.554 18.966-18.966v0-113.773c0-10.436-8.53-18.966-18.966-18.966v0h-113.773c-10.436 0-18.966 8.53-18.966 18.966v0 113.773c0 10.412 8.53 18.966 18.966 18.966v0zM568.882 789.331c10.436 0 18.966-8.53 18.966-18.966v0-113.773c0-10.436-8.53-18.966-18.966-18.966v0h-113.773c-10.412 0-18.966 8.53-18.966 18.966v0 113.773c0 10.436 8.554 18.966 18.966 18.966v0z" />
<glyph unicode="&#xe933;" glyph-name="headphones" d="M322.385 334.236c41.721 0 75.841-34.144 75.841-75.865v0-75.84c0-41.721-34.12-75.865-75.841-75.865v0h-18.966c-10.412 0-18.966 8.554-18.966 18.966v0 189.637c0 10.412 8.554 18.966 18.966 18.966v0zM720.596 334.236c10.436 0 18.966-8.554 18.966-18.966v-189.637c0-10.412-8.53-18.966-18.966-18.966h-18.966c-41.721 0-75.841 34.144-75.841 75.865v75.84c0 41.721 34.12 75.865 75.841 75.865h18.966zM512.012 789.333c188.197 0 341.321-153.122 341.321-341.317v0-322.376c0-10.436-8.53-18.966-18.966-18.966v0h-37.908c-10.436 0-18.966 8.53-18.966 18.966v0 322.376c0 146.377-119.102 265.453-265.48 265.453-146.403 0-265.48-119.076-265.48-265.453v0-322.376c0-10.436-8.53-18.966-18.966-18.966v0h-37.933c-10.412 0-18.966 8.53-18.966 18.966v0 322.376c0 188.195 153.124 341.317 341.346 341.317z" />
<glyph unicode="&#xe934;" glyph-name="heart" d="M797.792 428.715c74.055 72.708 74.055 190.721 0 263.454-74.007 72.684-194.133 72.66-268.139-0.048-6.526-6.376-12.269-13.257-17.622-20.306-5.377 7.074-11.145 13.931-17.671 20.355-74.007 72.684-194.133 72.66-268.139-0.048-74.080-72.757-74.055-190.697-0.024-263.382l284.466-279.405 287.13 279.381z" />
<glyph unicode="&#xe935;" glyph-name="history" d="M511.988 789.333c94.123 0 179.472-38.276 241.259-100.090 61.812-61.79 100.087-147.166 100.087-241.243 0-188.228-153.1-341.333-341.346-341.333-92.73 0-178.616 37.787-241.137 100.188v0l53.575 53.577c48.638-48.517 115.436-77.921 187.562-77.921 146.403 0 265.505 119.106 265.505 265.49 0 73.204-29.794 139.564-77.87 187.642-48.076 48.053-114.434 77.848-187.635 77.848-80.998 0-156.008-36.908-205.648-97.744v0l91.899-91.902h-227.572v227.556l81.731-81.71c63.816 74.695 158.086 119.644 259.59 119.644zM511.995 637.639v-151.712h75.865v-75.868h-151.706v227.58h75.841z" />
<glyph unicode="&#xe936;" glyph-name="home-narrow" d="M512 746.667l-298.667-298.667h74.655v-298.667h149.333v112.018c0 41.237 33.442 74.655 74.679 74.655s74.679-33.418 74.679-74.655v-112.018h149.309v298.667h74.679l-298.667 298.667z" />
<glyph unicode="&#xe937;" glyph-name="home-wide" d="M819.188 448v111.994h-115.194l-192.006 186.673-383.988-373.345h76.788v-223.988h230.412v186.673h153.575v-186.673h230.412v223.988h76.812z" />
<glyph unicode="&#xe938;" glyph-name="image" d="M838.389 746.667c31.775 0 57.611-25.117 57.611-56.009v0-485.315c0-30.892-25.836-56.009-57.611-56.009v0h-652.802c-31.75 0-57.586 25.117-57.586 56.009v0 485.315c0 30.892 25.836 56.009 57.586 56.009v0zM819.185 671.988h-614.395v-447.976l178.426 173.464c7.449 7.242 19.699 7.242 27.148 0v0l63.229-61.47 345.593 335.982zM350.919 586.656c33.593 0 60.812-26.834 60.812-59.984s-27.219-60.010-60.812-60.010c-33.593 0-60.812 26.86-60.812 60.010s27.219 59.984 60.812 59.984z" />
<glyph unicode="&#xe939;" glyph-name="instagram" d="M552.080 789.306c57.183-0.127 70.297-0.625 100.626-2.012 36.352-1.664 61.141-7.424 82.859-15.872 22.443-8.747 41.472-20.395 60.459-39.381s30.635-37.973 39.381-60.459c8.448-21.717 14.208-46.507 15.872-82.859 0.347-7.582 0.638-14.089 0.881-20.476l0.27-7.67c0.58-18.050 0.813-38.175 0.877-81.395v-62.333c-0.060-40.121-0.265-60.348-0.758-77.491l-0.249-7.755c-0.27-7.658-0.606-15.21-1.022-24.309-1.664-36.352-7.424-61.184-15.872-82.859-8.747-22.485-20.395-41.472-39.381-60.459s-38.016-30.677-60.459-39.381c-21.717-8.448-46.507-14.208-82.859-15.872-31.845-1.456-44.711-1.932-109.542-2.028h-62.346c-40.134 0.060-60.355 0.265-77.501 0.758l-7.756 0.249c-7.661 0.27-15.218 0.606-24.327 1.022-36.309 1.664-61.141 7.424-82.816 15.872-22.443 8.704-41.515 20.395-60.459 39.381-18.987 18.987-30.677 37.973-39.381 60.459-8.448 21.675-14.208 46.507-15.872 82.859-1.387 30.329-1.884 43.473-2.012 100.641v80.162c0.127 57.183 0.625 70.297 2.012 100.626 1.664 36.352 7.424 61.141 15.872 82.859 8.704 22.485 20.395 41.472 39.381 60.459 18.944 18.987 38.016 30.635 60.459 39.381 21.675 8.448 46.507 14.208 82.816 15.872 30.364 1.387 43.484 1.884 100.669 2.012zM533.163 727.851h-42.343c-49.049-0.044-70.151-0.265-89.077-0.873l-7.515-0.264c-6.268-0.238-12.676-0.522-20.178-0.86-33.28-1.536-51.328-7.083-63.36-11.776-15.957-6.187-27.307-13.568-39.253-25.515s-19.371-23.296-25.557-39.253c-4.651-12.032-10.197-30.080-11.733-63.36-0.277-6.002-0.518-11.303-0.726-16.393l-0.416-11.3c-0.61-18.926-0.815-40.028-0.855-89.077v-42.343c0.040-49.049 0.245-70.151 0.855-89.077l0.266-7.515c0.241-6.268 0.53-12.676 0.877-20.178 1.536-33.28 7.083-51.371 11.733-63.36 6.187-15.957 13.611-27.307 25.557-39.253s23.296-19.328 39.253-25.515c12.032-4.693 30.080-10.24 63.36-11.776 31.509-1.419 43.713-1.89 107.325-1.986h61.232c63.612 0.096 75.816 0.567 107.325 1.986 33.237 1.536 51.328 7.083 63.36 11.776 15.957 6.187 27.307 13.568 39.253 25.515s19.328 23.296 25.557 39.253c4.651 11.989 10.197 30.080 11.733 63.36 1.351 30.009 1.813 42.507 1.93 98.58v78.723c-0.117 56.073-0.579 68.571-1.93 98.58-1.536 33.28-7.083 51.328-11.733 63.36-6.229 15.957-13.611 27.307-25.557 39.253s-23.296 19.328-39.253 25.515c-12.032 4.693-30.123 10.24-63.36 11.776-7.502 0.338-13.91 0.622-20.178 0.86l-7.515 0.264c-18.926 0.608-40.028 0.829-89.077 0.873zM511.983 623.258c96.811 0 175.275-78.421 175.275-175.232 0-96.853-78.464-175.275-175.275-175.275s-175.275 78.421-175.275 175.275c0 96.811 78.464 175.232 175.275 175.232zM511.983 561.775c-62.848 0-113.792-50.944-113.792-113.749 0-62.848 50.944-113.792 113.792-113.792s113.792 50.944 113.792 113.792c0 62.805-50.944 113.749-113.792 113.749zM694.191 671.172c22.613 0 40.96-18.347 40.96-40.96s-18.347-40.96-40.96-40.96c-22.613 0-40.96 18.347-40.96 40.96s18.347 40.96 40.96 40.96z" />
<glyph unicode="&#xe93a;" glyph-name="flat" d="M216.176 547.239h-46.775c-16.435 0-30.341 13.907-30.341 30.341v32.869c0 8.849 2.528 20.227 5.057 27.812 1.264 3.792 16.435 39.191 48.040 39.191 30.341 0 46.775-35.397 48.040-39.191v0c3.792-7.585 5.057-20.227 5.057-27.812v-32.869c1.264-16.435-12.641-30.341-29.076-30.341zM178.251 585.165h30.341v25.284c0 3.792-1.264 10.113-2.528 13.907-3.792 7.585-10.113 15.171-12.641 15.171s-8.849-7.585-12.641-15.171c-1.264-3.792-2.528-10.113-2.528-13.907v-25.284zM367.88 547.239h-46.775c-16.435 0-30.341 13.907-30.341 30.341v32.869c0 8.849 2.528 20.227 5.057 27.812 1.264 3.792 16.435 39.191 48.040 39.191 30.341 0 46.775-35.397 48.040-39.191v0c3.792-7.585 5.057-20.227 5.057-27.812v-32.869c1.264-16.435-12.641-30.341-29.076-30.341zM329.953 585.165h30.341v25.284c0 3.792-1.264 10.113-2.528 13.907-3.792 7.585-10.113 15.171-12.641 15.171s-8.849-7.585-12.641-15.171c-1.264-3.792-2.528-10.113-2.528-13.907v-25.284zM216.176 382.893h-46.775c-16.435 0-30.341 13.907-30.341 30.341v32.869c0 8.849 2.528 20.227 5.057 27.812 1.264 3.792 16.435 39.191 48.040 39.191 30.341 0 46.775-35.397 48.040-39.191v0c3.792-7.585 5.057-20.227 5.057-27.812v-32.869c1.264-16.435-12.641-30.341-29.076-30.341zM178.251 420.82h30.341v25.284c0 3.792-1.264 10.113-2.528 13.907-3.792 7.585-10.113 15.171-12.641 15.171s-8.849-7.585-12.641-15.171c-1.264-3.792-2.528-10.113-2.528-13.907v-25.284zM367.88 382.893h-46.775c-16.435 0-30.341 13.907-30.341 30.341v32.869c0 8.849 2.528 20.227 5.057 27.812 1.264 3.792 16.435 39.191 48.040 39.191 30.341 0 46.775-35.397 48.040-39.191v0c3.792-7.585 5.057-20.227 5.057-27.812v-32.869c1.264-16.435-12.641-30.341-29.076-30.341zM329.953 420.82h30.341v25.284c0 3.792-1.264 10.113-2.528 13.907-3.792 7.585-10.113 15.171-12.641 15.171s-8.849-7.585-12.641-15.171c-1.264-3.792-2.528-10.113-2.528-13.907v-25.284zM216.176 205.905h-46.775c-16.435 0-30.341 13.907-30.341 30.341v32.869c0 8.849 2.528 20.227 5.057 27.812 1.264 3.792 16.435 39.191 48.040 39.191 30.341 0 46.775-35.397 48.040-39.191v0c3.792-7.585 5.057-20.227 5.057-27.812v-32.869c1.264-16.435-12.641-30.341-29.076-30.341zM178.251 243.832h30.341v25.284c0 3.792-1.264 10.113-2.528 13.907-3.792 7.585-10.113 15.171-12.641 15.171s-8.849-7.585-12.641-15.171c-1.264-3.792-2.528-10.113-2.528-13.907v-25.284zM367.88 205.905h-46.775c-16.435 0-30.341 13.907-30.341 30.341v32.869c0 8.849 2.528 20.227 5.057 27.812 1.264 3.792 16.435 39.191 48.040 39.191 30.341 0 46.775-35.397 48.040-39.191v0c3.792-7.585 5.057-20.227 5.057-27.812v-32.869c1.264-16.435-12.641-30.341-29.076-30.341zM329.953 243.832h30.341v25.284c0 3.792-1.264 10.113-2.528 13.907-3.792 7.585-10.113 15.171-12.641 15.171s-8.849-7.585-12.641-15.171c-1.264-3.792-2.528-10.113-2.528-13.907v-25.284zM683.929 547.239h-46.775c-16.435 0-30.341 13.907-30.341 30.341v32.869c0 8.849 2.528 20.227 5.057 27.812 1.264 3.792 16.435 39.191 48.040 39.191 30.341 0 46.775-35.397 48.040-39.191v0c3.792-7.585 5.057-20.227 5.057-27.812v-32.869c1.264-16.435-12.641-30.341-29.076-30.341zM646.003 585.165h30.341v25.284c0 3.792-1.264 10.113-2.528 13.907-3.792 7.585-10.113 15.171-12.641 15.171s-8.849-7.585-12.641-15.171c-1.264-3.792-2.528-10.113-2.528-13.907v-25.284zM835.633 547.239h-46.775c-16.435 0-30.341 13.907-30.341 30.341v32.869c0 8.849 2.528 20.227 5.057 27.812 1.264 3.792 16.435 39.191 48.040 39.191 30.341 0 46.775-35.397 48.040-39.191v0c3.792-7.585 5.057-20.227 5.057-27.812v-32.869c1.264-16.435-12.641-30.341-29.076-30.341zM797.707 585.165h30.341v25.284c0 3.792-1.264 10.113-2.528 13.907-3.792 7.585-10.113 15.171-12.641 15.171s-8.849-7.585-12.641-15.171c-1.264-3.792-2.528-10.113-2.528-13.907v-25.284zM683.929 382.893h-46.775c-16.435 0-30.341 13.907-30.341 30.341v32.869c0 8.849 2.528 20.227 5.057 27.812 1.264 3.792 16.435 39.191 48.040 39.191 30.341 0 46.775-35.397 48.040-39.191v0c3.792-7.585 5.057-20.227 5.057-27.812v-32.869c1.264-16.435-12.641-30.341-29.076-30.341zM646.003 420.82h30.341v25.284c0 3.792-1.264 10.113-2.528 13.907-3.792 7.585-10.113 15.171-12.641 15.171s-8.849-7.585-12.641-15.171c-1.264-3.792-2.528-10.113-2.528-13.907v-25.284zM835.633 382.893h-46.775c-16.435 0-30.341 13.907-30.341 30.341v32.869c0 8.849 2.528 20.227 5.057 27.812 1.264 3.792 16.435 39.191 48.040 39.191 30.341 0 46.775-35.397 48.040-39.191v0c3.792-7.585 5.057-20.227 5.057-27.812v-32.869c1.264-16.435-12.641-30.341-29.076-30.341zM797.707 420.82h30.341v25.284c0 3.792-1.264 10.113-2.528 13.907-3.792 7.585-10.113 15.171-12.641 15.171s-8.849-7.585-12.641-15.171c-1.264-3.792-2.528-10.113-2.528-13.907v-25.284zM683.929 205.905h-46.775c-16.435 0-30.341 13.907-30.341 30.341v32.869c0 8.849 2.528 20.227 5.057 27.812 1.264 3.792 16.435 39.191 48.040 39.191 30.341 0 46.775-35.397 48.040-39.191v0c3.792-7.585 5.057-20.227 5.057-27.812v-32.869c1.264-16.435-12.641-30.341-29.076-30.341zM646.003 243.832h30.341v25.284c0 3.792-1.264 10.113-2.528 13.907-3.792 7.585-10.113 15.171-12.641 15.171s-8.849-7.585-12.641-15.171c-1.264-3.792-2.528-10.113-2.528-13.907v-25.284zM835.633 205.905h-46.775c-16.435 0-30.341 13.907-30.341 30.341v32.869c0 8.849 2.528 20.227 5.057 27.812 1.264 3.792 16.435 39.191 48.040 39.191 30.341 0 46.775-35.397 48.040-39.191v0c3.792-7.585 5.057-20.227 5.057-27.812v-32.869c1.264-16.435-12.641-30.341-29.076-30.341zM797.707 243.832h30.341v25.284c0 3.792-1.264 10.113-2.528 13.907-3.792 7.585-10.113 15.171-12.641 15.171s-8.849-7.585-12.641-15.171c-1.264-3.792-2.528-10.113-2.528-13.907v-25.284zM1005.036-5.215h-70.795v758.519h32.869c24.020 0 44.247 20.227 44.247 44.247v12.641c0 24.020-20.227 44.247-44.247 44.247h-56.889v40.455c0 24.020-20.227 44.247-44.247 44.247h-25.284c-24.020 0-44.247-20.227-44.247-44.247v-40.455h-606.815v40.455c0 24.020-20.227 44.247-44.247 44.247h-25.284c-24.020 0-44.247-20.227-44.247-44.247v-40.455h-31.605c-24.020 0-44.247-20.227-44.247-44.247v-12.641c0-24.020 20.227-44.247 44.247-44.247h32.869v-758.519h-45.511c-10.113 0-18.963-8.849-18.963-18.963s8.849-18.963 18.963-18.963h973.432c10.113 0 18.963 8.849 18.963 18.963s-8.849 18.963-18.963 18.963zM834.369 894.893c0 3.792 2.528 6.321 6.321 6.321h25.284c3.792 0 6.321-2.528 6.321-6.321v-40.455h-37.925v40.455zM113.776 894.893c0 3.792 2.528 6.321 6.321 6.321h25.284c3.792 0 6.321-2.528 6.321-6.321v-40.455h-37.925v40.455zM37.924 797.551v12.641c0 3.792 2.528 6.321 6.321 6.321h922.864c3.792 0 6.321-2.528 6.321-6.321v-12.641c0-3.792-2.528-6.321-6.321-6.321h-922.864c-3.792 0-6.321 2.528-6.321 6.321zM328.689-5.215h-107.457v68.267c0 29.076 24.020 53.096 53.096 53.096s53.096-24.020 53.096-53.096v-68.267zM366.616-5.215v68.267c0 50.568-40.455 91.023-91.023 91.023s-91.023-40.455-91.023-91.023v-68.267h-70.795v758.519h332.484v-758.519h-79.644zM479.129-5.215v758.519h54.36v-758.519h-54.36zM783.801-5.215h-107.457v68.267c0 29.076 24.020 53.096 53.096 53.096s53.096-24.020 53.096-53.096v-68.267zM821.727-5.215v68.267c0 50.568-40.455 91.023-91.023 91.023s-91.023-40.455-91.023-91.023v-68.267h-70.795v758.519h332.484v-758.519h-79.644z" />
<glyph unicode="&#xe93b;" glyph-name="link-away" d="M853.333 481.187l-303.413 265.48v-155.275c-379.254-91.092-379.254-527.392-379.254-527.392s132.007 306.688 379.254 306.688v-154.982l303.413 265.48z" />
<glyph unicode="&#xe93c;" glyph-name="link" d="M389.64 513.228l57.487-57.507-186.812-186.936 114.947-115.039 186.786 186.936 57.487-57.507-201.164-201.326c-11.497-11.507-26.792-17.85-43.109-17.85-16.29 0-31.611 6.343-43.109 17.85v0l-143.678 143.793c-11.497 11.507-17.809 26.84-17.809 43.143s6.312 31.637 17.809 43.143v0l201.164 201.299zM626.517 577.733l57.461-57.507-243.854-244.049-57.461 57.533 243.854 244.023zM648.27 772.073c22.995 23.013 63.222 23.013 86.217 0v0l143.678-143.793c11.497-11.507 17.835-26.814 17.835-43.143s-6.338-31.637-17.835-43.143v0l-201.19-201.299-57.434 57.507 186.786 186.936-114.947 115.039-186.786-186.962-57.461 57.533z" />
<glyph unicode="&#xe93d;" glyph-name="linkedin" d="M325.645 577.011v-440.192h-146.389v440.192h146.389zM684.813 587.354c96.256 0 168.491-62.891 168.491-198.144v0-252.373h-146.304v235.52c0 59.136-21.205 99.584-74.197 99.584-40.363 0-64.469-27.349-75.093-53.589-3.84-9.429-4.821-22.443-4.821-35.669v0-245.845h-146.304l0.019 4.145c0.004 0.903 0.009 1.947 0.014 3.127l0.038 8.654c0.14 32.243 0.454 108.981 0.633 188.697l0.051 25.224 0.040 25.132c0.006 4.165 0.011 8.314 0.015 12.44l-0.009 81.351c-0.079 45.787-0.314 80.693-0.802 91.42v0h146.304v-62.336c19.499 30.037 54.272 72.661 131.925 72.661zM253.397 789.333c50.091 0 80.896-32.896 81.835-76.117 0-42.197-31.744-76.075-82.773-76.075v0h-0.981c-49.067 0-80.811 33.877-80.811 76.075 0 43.221 32.725 76.117 82.731 76.117z" />
<glyph unicode="&#xe93e;" glyph-name="lock" d="M399.989 524.8v115.194c0 63.524 50.237 115.194 111.998 115.194s112.023-51.67 112.023-115.194v-115.194h-224.021zM511.988 275.209c-30.917 0-55.987 25.786-55.987 57.585 0 31.824 25.070 57.609 55.987 57.609 30.941 0 56.011-25.786 56.011-57.609 0-31.799-25.070-57.585-56.011-57.585v0zM791.996 524.8h-93.328v115.194c0 105.864-83.752 192.006-186.68 192.006s-186.68-86.142-186.68-192.006v-115.194h-93.304c-10.274 0-18.67-8.661-18.67-19.203v-134.397c0-169.66 133.7-307.2 298.655-307.2s298.679 137.54 298.679 307.2v134.397c0 10.542-8.397 19.203-18.67 19.203v0z" />
<glyph unicode="&#xe93f;" glyph-name="microphone-mute" d="M226.094 779.602l627.239-648.53-55.428-57.338-121.896 126.039c-35.874-27.82-78.443-46.68-124.801-53.602v0-43.78l78.392-81.056h-235.202l78.392 81.056v43.78c-132.759 19.774-235.202 137.846-235.202 280.498v0h78.417c0-111.75 87.917-202.68 195.993-202.68 39.891 0 76.952 12.486 107.925 33.75v0l-57.424 59.375c-15.335-7.628-32.413-12.042-50.501-12.042-64.674 0-117.601 54.726-117.601 121.598v0 64.286l-223.732 231.31 55.428 57.338zM786.416 426.671c0-41.194-8.716-80.247-24.051-115.59v0l-61.213 63.294c4.32 16.718 6.846 34.194 6.846 52.296v0zM512.003 832c64.674 0 117.601-54.699 117.601-121.598v0-262.030l-235.202 243.196v18.834c0 66.898 52.927 121.598 117.601 121.598z" />
<glyph unicode="&#xe940;" glyph-name="microphone-on" d="M298.655 448.004c0-117.632 95.715-213.349 213.345-213.349s213.345 95.717 213.345 213.349v0h85.322c0-150.161-111.498-274.447-255.992-295.263v0-46.085l85.322-85.323h-255.992l85.322 85.323v46.085c-144.466 20.815-255.992 145.102-255.992 295.263v0zM512.005 874.667c70.391 0 127.996-57.579 127.996-127.998v0-298.672c0-70.392-57.605-127.998-127.996-127.998s-127.996 57.606-127.996 127.998v0 298.672c0 70.42 57.605 127.998 127.996 127.998z" />
<glyph unicode="&#xe941;" glyph-name="more-horizontal" d="M341.333 448c0-46.928-38.384-85.333-85.347-85.333-46.935 0-85.32 38.405-85.32 85.333s38.384 85.333 85.32 85.333c46.963 0 85.347-38.405 85.347-85.333zM597.333 448c0-46.928-38.384-85.333-85.347-85.333-46.935 0-85.32 38.405-85.32 85.333s38.384 85.333 85.32 85.333c46.963 0 85.347-38.405 85.347-85.333zM853.333 448c0-46.928-38.384-85.333-85.347-85.333-46.935 0-85.32 38.405-85.32 85.333s38.384 85.333 85.32 85.333c46.963 0 85.347-38.405 85.347-85.333z" />
<glyph unicode="&#xe942;" glyph-name="more-vertical" d="M512 277.333c46.928 0 85.333-38.384 85.333-85.347 0-46.935-38.405-85.32-85.333-85.32s-85.333 38.384-85.333 85.32c0 46.963 38.405 85.347 85.333 85.347zM512 533.333c46.928 0 85.333-38.384 85.333-85.347 0-46.935-38.405-85.32-85.333-85.32s-85.333 38.384-85.333 85.32c0 46.963 38.405 85.347 85.333 85.347zM512 789.333c46.928 0 85.333-38.384 85.333-85.347 0-46.935-38.405-85.32-85.333-85.32s-85.333 38.384-85.333 85.32c0 46.963 38.405 85.347 85.333 85.347z" />
<glyph unicode="&#xe943;" glyph-name="list" horiz-adv-x="1570" d="M209.292 857.544c0-136.495-209.303-136.495-209.303 0s209.303 136.495 209.303 0zM418.695 755.222h1151.316v204.741h-1151.316zM209.292 447.963c0-136.495-209.303-136.495-209.303 0 0 136.591 209.303 136.591 209.303 0zM418.695 345.641h1151.316v204.741h-1151.316zM209.292 38.48c0-136.591-209.303-136.591-209.303 0 0 136.495 209.303 136.495 209.303 0zM418.695-63.94h1151.316v204.741h-1151.316z" />
<glyph unicode="&#xe944;" glyph-name="pause" d="M392.889 746.667c10.737 0 19.559-8.421 19.559-18.67v-559.994c0-10.249-8.822-18.67-19.559-18.67h-117.33c-10.763 0-19.559 8.421-19.559 18.67v559.994c0 10.249 8.797 18.67 19.559 18.67h117.33zM748.441 746.667c10.763 0 19.559-8.421 19.559-18.67v-559.994c0-10.249-8.797-18.67-19.559-18.67h-117.33c-10.737 0-19.559 8.421-19.559 18.67v559.994c0 10.249 8.822 18.67 19.559 18.67h117.33z" />
<glyph unicode="&#xe945;" glyph-name="copy" horiz-adv-x="2048" d="M194.56 448c0 175.104 142.336 317.44 317.44 317.44h409.6v194.56h-409.6c-282.624 0-512-229.376-512-512s229.376-512 512-512h409.6v194.56h-409.6c-175.104 0-317.44 142.336-317.44 317.44v0zM614.4 345.6h819.2v204.8h-819.2v-204.8zM1536 960h-409.6v-194.56h409.6c175.104 0 317.44-142.336 317.44-317.44s-142.336-317.44-317.44-317.44h-409.6v-194.56h409.6c282.624 0 512 229.376 512 512s-229.376 512-512 512v0z" />
<glyph unicode="&#xe946;" glyph-name="phone" d="M1013.324 96.356c-28.147-83.091-147.42-164.256-204.36-160.211-166.505 11.879-366.554 95.228-540.001 268.538-173.513 173.376-256.856 373.268-268.816 539.641-4.049 56.956 76.409 176.911 159.501 205.037 60.28 20.356 101.022 14.063 129.747-41.417l70.304-130.352c17.095-31.721 4.755-56.443-32.903-83.798-82.642-60.038-98.965-89.128-57.837-162.778 38.429-68.708 84.057-117.959 145.814-179.672s111.047-107.299 179.814-145.699c73.711-41.096 102.886-24.786 162.907 57.791 27.377 37.629 52.054 49.958 83.864 32.877l130.455-70.248c55.588-28.767 61.949-69.543 41.514-129.709h-0.003zM581.984 836.152c0.45 0.064 0.9 0.064 1.35 0 84.634 0.064 165.797-33.584 225.5-93.494 59.701-59.91 93.118-141.139 92.796-225.651-0.128-27.483 22.107-49.894 49.611-49.958h0.193c27.377 0 49.675 22.154 49.743 49.572 0.446 111.28-43.573 218.138-122.361 296.796-78.723 78.661-185.654 122.71-297.030 122.264-27.441-0.068-49.675-22.414-49.611-49.832 0-27.483 22.3-49.7 49.804-49.7l0.007 0.002zM581.984 628.551c0.45 0.064 0.964 0 1.35 0 29.497 0.129 57.772-11.622 78.529-32.556 20.821-20.933 32.324-49.315 32.003-78.789-0.257-27.483 21.849-49.958 49.354-50.15h0.45c27.313 0 49.547 22.024 49.803 49.315 0.643 56.379-21.528 110.575-61.5 150.321-40.036 39.49-94.147 61.58-150.376 61.389-27.441-0.194-49.547-22.54-49.419-49.959 0.065-27.419 22.365-49.572 49.804-49.572l0.002 0.002z" />
<glyph unicode="&#xe947;" glyph-name="pin" d="M512 960.001c-201.083 0-363.301-165.598-363.301-368.37 0-160.528 219.67-493.413 314.298-630.284 11.828-15.207 28.727-25.346 49.003-25.346s37.175 10.139 49.003 25.346c94.627 135.182 314.298 468.067 314.298 630.284 0 202.773-162.218 368.37-363.301 368.37zM518.758-8.238c-1.69-3.379-5.069-3.379-6.76-3.379s-5.069 0-6.76 3.379c-72.66 103.076-305.849 449.478-305.849 599.87 0 175.735 140.25 317.677 312.607 317.677s312.607-141.94 312.607-317.677c0-150.389-234.879-496.794-305.849-599.87zM510.31 716.674c-60.831 0-109.836-49.003-109.836-109.836s49.003-109.836 109.836-109.836 109.836 49.003 109.836 109.836-49.003 109.836-109.836 109.836zM510.31 547.697c-32.106 0-59.142 27.036-59.142 59.142s27.036 59.142 59.142 59.142 59.142-27.036 59.142-59.142-27.036-59.142-59.142-59.142z" />
<glyph unicode="&#xe948;" glyph-name="pinterest" d="M536.235 789.333c-186.325 0-280.235-133.547-280.235-244.949 0-67.456 25.472-127.445 80.256-149.803 8.96-3.669 17.067-0.128 19.627 9.813 1.835 6.869 6.101 24.235 8.021 31.488 2.603 9.813 1.621 13.269-5.632 21.845-15.787 18.645-25.856 42.709-25.856 76.885 0 99.115 74.112 187.819 193.024 187.819 105.301 0 163.157-64.341 163.157-150.272 0-113.067-50.048-208.512-124.331-208.512-41.045 0-71.68 33.963-61.867 75.563 11.776 49.664 34.603 103.253 34.603 139.136 0 32.085-17.195 58.88-52.864 58.88-41.941 0-75.648-43.392-75.648-101.504 0-37.035 12.544-62.037 12.544-62.037s-42.923-181.845-50.475-213.675c-14.976-63.445-2.261-141.184-1.152-149.035 0.597-4.651 6.613-5.76 9.344-2.219 3.797 5.035 53.76 66.688 70.784 128.299 4.779 17.451 27.563 107.819 27.563 107.819 13.653-26.027 53.461-48.896 95.787-48.896 126.037 0 211.584 114.901 211.584 268.715 0 116.309-98.517 224.64-248.235 224.64z" />
<glyph unicode="&#xe949;" glyph-name="play" d="M762.713 460.983l-1.959 1.411-394.167 282.862c-2.148 0.909-4.461 1.411-6.939 1.411-10.101 0-18.315-8.297-18.315-18.555v-560.224c0-10.258 8.213-18.555 18.315-18.555 2.478 0 4.791 0.526 6.939 1.411l396.126 284.273c3.233 3.347 5.287 7.914 5.287 12.983s-2.053 9.636-5.287 12.983z" />
<glyph unicode="&#xe94a;" glyph-name="plus" d="M853.333 485.92h-303.413v303.413h-75.841v-303.413h-303.413v-75.865h303.413v-303.388h75.841v303.388h303.413z" />
<glyph unicode="&#xe94b;" glyph-name="printer" d="M701.627 258.373v-151.706h-379.254v151.706h379.254zM682.661 789.333c10.436 0 18.966-8.53 18.966-18.966v0-208.581h132.74c10.436 0 18.966-8.53 18.966-18.966v0-341.321c0-10.436-8.53-18.966-18.966-18.966v0h-94.807v94.807c0 10.412-8.554 18.942-18.966 18.942v0h-417.187c-10.412 0-18.966-8.53-18.966-18.942v0-94.807h-94.807c-10.436 0-18.966 8.53-18.966 18.966v0 341.321c0 10.436 8.53 18.966 18.966 18.966v0h132.74v208.581c0 10.436 8.53 18.966 18.966 18.966v0zM777.468 485.945h-75.865v-37.933h75.865v37.933zM663.694 751.401h-303.413v-189.615h303.413v189.615z" />
<glyph unicode="&#xe94c;" glyph-name="refresh" d="M398.215 329.48l-91.875-91.899c49.665-60.81 124.626-97.74 205.649-97.74 73.202 0 139.56 29.794 187.636 77.87 30.772 30.747 53.893 69.046 66.676 111.77v0h78.237c-14.518-63.669-46.634-120.739-91.288-165.393-61.788-61.836-147.136-100.087-241.26-100.087-101.505 0-195.775 44.972-259.615 119.615v0l-81.707-81.682v227.547h227.548zM511.987 746.667c101.529 0 195.799-44.972 259.64-119.64v0l81.707 81.707v-227.547h-227.548l91.875 91.899c-49.665 60.81-124.626 97.74-205.673 97.74-73.177 0-139.535-29.794-187.611-77.87-31.040-31.016-54.284-68.655-66.969-111.77v0h-78.017c14.469 63.865 46.634 120.666 91.361 165.393 61.788 61.812 147.136 100.087 241.235 100.087z" />
<glyph unicode="&#xe94d;" glyph-name="repeat" d="M853.333 490.657c0-164.677-119.103-298.668-265.482-298.668v0h-189.616v-85.322l-113.775 127.997 113.775 127.997v-85.322h189.616c104.56 0 189.64 95.688 189.64 213.319v0zM625.789 789.333l113.775-127.997-113.775-128.024v85.349h-189.64c-104.56 0-189.616-95.688-189.616-213.319v0h-75.866c0 164.677 119.103 298.668 265.482 298.668v0h189.64v85.322z" />
<glyph unicode="&#xe94e;" glyph-name="return" d="M646.401 661.335h-364.796v127.998l-153.605-170.646 153.605-170.674v127.998h364.796c95.301 0 172.809-86.12 172.809-192.011s-77.508-192.011-172.809-192.011h-364.796v-85.323h364.796c137.643 0 249.599 124.424 249.599 277.334 0 152.938-111.956 277.334-249.599 277.334z" />
<glyph unicode="&#xe94f;" glyph-name="full-arrow" horiz-adv-x="1536" d="M780.485-64c-6.016 0-11.648 2.596-15.040 7.037l-762.187 991.294c-3.904 4.961-4.288 11.479-1.216 16.901 3.136 5.364 9.344 8.768 16.064 8.768h1499.717c6.72 0 12.864-3.346 16.064-8.653 3.136-5.365 2.752-11.825-0.96-16.843l-737.48-991.235c-3.392-4.499-8.96-7.21-14.976-7.269h0.015z" />
<glyph unicode="&#xe950;" glyph-name="rotate-clockwise" d="M853.333 481.187h-227.547l91.874 91.899c-49.664 60.834-124.626 97.74-205.648 97.74-73.177 0-139.559-29.769-187.635-77.87-48.076-48.076-77.845-114.434-77.845-187.611 0-146.403 119.102-265.48 265.48-265.48 72.15 0 138.948 29.403 187.537 77.894l53.6-53.575c-62.521-62.349-148.407-100.184-241.137-100.184-188.246 0-341.346 153.124-341.346 341.346 0 94.099 38.299 179.447 100.087 241.234 61.812 61.812 147.136 100.087 241.259 100.087 101.504 0 195.774-44.972 259.614-119.64l81.707 81.731v-227.572z" />
<glyph unicode="&#xe951;" glyph-name="rotate-counter-clockwise" d="M170.667 523.853h227.547l-91.874 91.899c49.664 60.834 124.626 97.74 205.648 97.74 73.177 0 139.559-29.769 187.635-77.87 48.076-48.076 77.845-114.434 77.845-187.611 0-146.403-119.102-265.48-265.48-265.48-72.15 0-138.948 29.403-187.537 77.894l-53.6-53.575c62.521-62.349 148.407-100.184 241.137-100.184 188.246 0 341.346 153.124 341.346 341.346 0 94.099-38.299 179.447-100.087 241.234-61.812 61.812-147.136 100.087-241.259 100.087-101.504 0-195.774-44.972-259.614-119.64l-81.707 81.731v-227.572z" />
<glyph unicode="&#xe952;" glyph-name="transport" horiz-adv-x="721" d="M542.315 959.999h-365.018c-93.344 0-168.577-75.233-168.577-168.577v-562.852c0-26.471 22.291-48.762 48.762-48.762h130.961l-130.961-243.81h115.635l129.568 243.81h108.67l129.568-243.81h115.635l-130.961 243.81h137.927c26.471 0 48.762 22.291 48.762 48.762v562.852c-1.393 93.344-76.626 168.577-169.97 168.577zM669.095 228.57c0-4.179-2.786-6.966-6.966-6.966h-604.647c-4.179 0-6.966 2.786-6.966 6.966v562.852c0 69.659 57.121 126.78 126.78 126.78h366.411c69.659 0 126.78-57.121 126.78-126.78v-562.852zM497.732 438.943h-281.426c-72.447 0-130.961 58.514-130.961 130.961v57.121c0 72.447 58.514 130.961 130.961 130.961h281.426c72.447 0 130.961-58.514 130.961-130.961v-57.121c0-72.447-58.514-130.961-130.961-130.961zM216.306 714.797c-48.762 0-89.164-40.402-89.164-89.164v-57.121c0-48.762 40.402-89.164 89.164-89.164h281.426c48.762 0 89.164 40.402 89.164 89.164v58.514c0 48.762-40.402 89.164-89.164 89.164h-281.426zM182.87 312.162c0-23.083-18.713-41.795-41.795-41.795s-41.795 18.713-41.795 41.795c0 23.083 18.713 41.795 41.795 41.795s41.795-18.713 41.795-41.795zM141.073 255.041c-32.043 0-57.121 26.471-57.121 57.121s26.471 57.121 57.121 57.121 57.121-26.471 57.121-57.121-25.078-57.121-57.121-57.121zM141.073 338.633c-13.931 0-26.471-11.145-26.471-26.471s11.145-26.471 26.471-26.471 26.471 11.145 26.471 26.471-12.538 26.471-26.471 26.471zM600.829 312.162c0-23.083-18.713-41.795-41.795-41.795s-41.795 18.713-41.795 41.795c0 23.083 18.713 41.795 41.795 41.795s41.795-18.713 41.795-41.795zM559.033 255.041c-32.043 0-57.121 26.471-57.121 57.121s26.471 57.121 57.121 57.121 57.121-26.471 57.121-57.121-25.078-57.121-57.121-57.121zM559.033 338.633c-13.931 0-26.471-11.145-26.471-26.471s11.145-26.471 26.471-26.471 26.471 11.145 26.471 26.471-12.538 26.471-26.471 26.471zM426.68 819.286h-139.32c-11.145 0-20.898 9.752-20.898 20.898s9.752 20.898 20.898 20.898h139.32c11.145 0 20.898-9.752 20.898-20.898s-9.752-20.898-20.898-20.898z" />
<glyph unicode="&#xe953;" glyph-name="search" d="M997.975-15.144l-211.053 211.053c80.122 82.076 128.977 191.512 128.977 314.626 0 248.183-201.282 449.465-449.465 449.465s-449.465-201.282-449.465-449.465 201.282-449.465 449.465-449.465c103.573 0 199.328 35.176 275.542 95.755l214.961-213.007c5.862-5.862 13.679-7.818 21.497-7.818s15.633 1.954 21.497 7.818c9.772 11.725 9.772 29.312-1.954 41.038zM75.594 510.535c0 214.961 175.877 390.84 390.84 390.84s390.84-175.877 390.84-390.84-175.877-390.84-390.84-390.84-390.84 175.877-390.84 390.84z" />
<glyph unicode="&#xe954;" glyph-name="send" d="M896 448l-768 341.333 57.609-255.986 383.988-85.347-383.988-85.347-57.609-255.986z" />
<glyph unicode="&#xe955;" glyph-name="share" d="M698.668 163.541c-30.917 0-56.011 25.468-56.011 56.899 0 31.407 25.094 56.875 56.011 56.875s56.011-25.468 56.011-56.875c0-31.431-25.094-56.899-56.011-56.899zM325.332 391.113c-30.941 0-56.011 25.468-56.011 56.875s25.070 56.899 56.011 56.899c30.917 0 56.011-25.492 56.011-56.899s-25.094-56.875-56.011-56.875zM698.668 732.434c30.917 0 56.011-25.492 56.011-56.899s-25.094-56.875-56.011-56.875c-30.917 0-56.011 25.468-56.011 56.875s25.094 56.899 56.011 56.899zM698.668 334.214c-27.091 0-51.969-9.801-71.337-26.079l-192.238 117.171c1.468 7.332 2.238 14.934 2.238 22.681 0 7.772-0.77 15.349-2.238 22.681l192.238 117.171c19.368-16.278 44.246-26.079 71.337-26.079 61.858 0 111.998 50.935 111.998 113.774s-50.141 113.798-111.998 113.798c-61.858 0-111.998-50.96-111.998-113.798 0-7.748 0.77-15.349 2.238-22.681l-192.238-117.147c-19.368 16.278-44.246 26.054-71.337 26.054-61.858 0-111.998-50.935-111.998-113.774s50.141-113.774 111.998-113.774c27.091 0 51.969 9.801 71.337 26.079l192.238-117.171c-1.468-7.332-2.238-14.934-2.238-22.681 0-62.838 50.141-113.774 111.998-113.774s111.998 50.935 111.998 113.774c0 62.814-50.141 113.774-111.998 113.774z" />
<glyph unicode="&#xe956;" glyph-name="swimming" horiz-adv-x="1952" d="M1297.673 469.722c-109.641 0-200.663 88.953-200.663 200.663 0 109.641 88.953 200.663 200.663 200.663 109.641 0 200.663-88.953 200.663-200.663 0-109.641-88.953-200.663-200.663-200.663zM1297.673 808.987c-76.541 0-138.603-62.060-138.603-138.603s62.060-138.603 138.603-138.603c76.541 0 138.603 62.060 138.603 138.603s-62.060 138.603-138.603 138.603zM1430.071 422.141c-70.336-14.481-111.709-70.336-148.947-117.915-35.169-43.442-57.923-70.336-84.816-68.267s-45.511 28.962-70.336 74.472c-28.962 49.65-59.991 105.504-124.122 115.846-76.541 12.412-132.395-47.579-186.182-103.434-47.579-49.65-91.024-97.229-138.603-91.024-41.374 4.137-68.267 45.511-97.229 86.885-12.412 16.549-24.825 35.169-39.306 51.718l322.716 140.671 6.205-12.412c8.276-14.481 26.893-20.686 41.374-14.481s20.686 26.893 14.481 41.374l-130.327 264.793c-6.205 10.344-16.549 16.549-26.893 16.549h-384.778v88.953h446.838l270.998-477.868c6.205-10.344 16.549-16.549 26.893-16.549 6.205 0 10.344 2.068 14.481 4.137 14.481 8.276 20.686 26.893 12.412 41.374l-279.274 496.488c-6.205 10.344-16.549 16.549-26.893 16.549h-496.488c-16.549 0-31.030-14.481-31.030-31.030v-151.015c0-16.549 14.481-31.030 31.030-31.030h395.12l88.953-175.84-351.678-153.083c-10.344 4.137-22.756 8.276-37.237 8.276-74.472 2.068-144.808-64.13-215.143-208.938l55.855-26.893c76.541 153.083 132.395 175.84 157.22 173.769 31.030-2.068 55.855-35.169 82.748-76.541 33.098-49.65 72.404-105.504 140.671-113.778 6.205 0 10.344 0 16.549 0 72.404 0 126.19 57.923 175.84 109.641 45.511 47.579 86.885 93.092 130.327 84.816 35.169-6.205 57.923-43.442 80.68-84.816 26.893-47.579 57.923-101.365 119.985-105.504s101.365 45.511 136.534 93.092c31.030 41.374 64.13 84.816 113.778 95.16s86.885-12.412 229.624-182.045l47.579 39.306c-144.808 167.564-202.733 219.282-289.618 198.594zM685.339-64c-6.205 0-10.344 0-16.549 0-68.267 8.276-107.573 64.13-140.671 113.778-26.893 39.306-51.718 74.472-82.748 76.541-26.893 2.068-80.68-20.686-157.22-173.769l-55.855 26.893c72.404 142.739 142.739 211.007 215.143 208.938 62.060-2.068 99.297-55.855 130.327-103.434 28.962-43.442 55.855-82.748 97.229-86.885 47.579-6.205 93.092 41.374 138.603 91.024 53.786 57.923 109.641 115.846 186.182 103.434 64.13-10.344 97.229-66.199 124.122-115.846 26.893-45.511 43.442-72.404 70.336-74.472s49.65 24.825 84.816 68.267c37.237 47.579 78.611 101.365 148.947 117.915 86.885 18.618 144.808-31.030 291.686-202.733l-47.579-39.306c-142.739 169.633-182.045 192.389-229.624 182.045s-80.68-53.786-113.778-95.16c-37.237-47.579-74.472-97.229-136.534-93.092s-93.092 57.923-119.985 105.504c-22.756 41.374-45.511 78.611-80.68 84.816-43.442 6.205-84.816-37.237-130.327-84.816-47.579-49.65-103.434-109.641-175.84-109.641z" />
<glyph unicode="&#xe957;" glyph-name="shuffle" d="M562.724 396.614l34.56-52.329c15.74-23.891 56.435-45.616 85.374-45.616v0h56.9v74.68l113.775-112.020-113.775-111.996v74.656h-56.9c-54.993 0-119.055 34.236-148.971 79.612v0l-16.205 24.516 45.241 68.497zM739.568 746.667l113.751-111.996-113.751-112.020v74.68h-56.9c-28.939 0-69.634-21.725-85.399-45.616v0l-163.832-248.123c-29.965-45.376-94.002-79.588-148.996-79.588v0h-113.775v74.656h113.775c28.939 0 69.634 21.75 85.399 45.616v0l163.832 248.123c29.941 45.376 94.002 79.612 148.996 79.612v0h56.9v74.656zM284.447 671.999c54.945 0 119.030-34.212 148.996-79.588v0l16.18-24.54-45.217-68.497-34.56 52.353c-15.789 23.867-56.484 45.616-85.399 45.616v0h-113.775v74.656z" />
<glyph unicode="&#xe958;" glyph-name="school" horiz-adv-x="1170" d="M228.107 73.035h-64.752c-21.082 0-37.648 16.565-37.648 37.648v45.176c0 12.047 3.011 27.106 7.53 37.648 1.506 6.024 22.588 52.706 63.247 52.706s60.235-46.683 63.247-52.706v0c4.517-10.541 7.53-27.106 7.53-37.648v-45.176c-1.506-21.082-18.071-37.648-39.153-37.648zM170.883 118.212h51.2v37.648c0 6.024-1.506 15.058-4.517 21.082-4.517 10.541-15.058 24.094-21.082 24.094s-16.565-15.058-21.082-24.094c-1.506-4.517-4.517-15.058-4.517-21.082v-37.648zM619.636 344.094h-64.752c-21.082 0-37.648 16.565-37.648 37.648v45.176c0 12.047 3.011 27.106 7.53 37.648 1.506 6.024 22.588 52.706 63.247 52.706s60.235-46.683 63.247-52.706v0c4.517-10.541 7.53-27.106 7.53-37.648v-45.176c-1.506-21.082-18.071-37.648-39.153-37.648zM562.414 389.27h51.2v37.648c0 6.024-1.506 15.058-4.517 21.082-4.517 10.541-15.058 24.094-21.082 24.094s-16.565-15.058-21.082-24.094c-1.506-4.517-4.517-15.058-4.517-21.082v-37.648zM1011.167 73.035h-64.752c-21.082 0-37.648 16.565-37.648 37.648v45.176c0 12.047 3.011 27.106 7.53 37.648 1.506 6.024 22.588 52.706 63.247 52.706s60.235-46.683 63.247-52.706v0c4.517-10.541 7.53-27.106 7.53-37.648v-45.176c-1.506-21.082-18.071-37.648-39.153-37.648zM953.943 118.212h51.2v37.648c0 6.024-1.506 15.058-4.517 21.082-4.517 10.541-15.058 24.094-21.082 24.094s-16.565-15.058-21.082-24.094c-1.506-4.517-4.517-15.058-4.517-21.082v-37.648zM1122.602 298.917l-167.152 79.812c-12.047 6.024-24.094 0-30.118-10.541s-1.506-24.094 10.541-30.118l167.152-79.812c7.53-3.011 13.552-15.058 13.552-22.588v-248.47c0-4.517-3.011-7.53-7.53-7.53h-269.554l3.011 590.306c0 24.094-15.058 52.706-36.142 64.752l-185.223 118.965c-4.517 3.011-9.035 6.024-15.058 7.53v42.165h158.119c28.612 0 52.706 24.094 52.706 52.706v51.2c0 28.612-24.094 52.706-52.706 52.706h-150.589c-28.612 0-52.706-24.094-52.706-52.706v-146.070c-6.024-1.506-10.541-4.517-15.058-7.53l-180.706-117.46c-19.577-13.552-36.142-40.659-36.142-64.752l-3.011-590.306h-265.035c-4.517 0-7.53 3.011-7.53 7.53v271.060c0 7.53 7.53 16.565 13.552 19.577l167.152 61.741c12.047 4.517 18.071 16.565 13.552 28.612s-18.071 18.071-28.612 13.552l-167.152-61.741c-24.094-9.035-43.67-36.142-43.67-61.741v-271.060c0-28.612 24.094-52.706 52.706-52.706h1048.095c28.612 0 52.706 24.094 52.706 52.706v246.965c0 25.601-16.565 52.706-39.153 63.247zM606.084 905.789c0 4.517 3.011 7.53 7.53 7.53h150.589c4.517 0 7.53-3.011 7.53-7.53v-51.2c0-4.517-3.011-7.53-7.53-7.53h-158.119v58.73zM675.355-20.33h-174.682v105.411c0 48.189 39.153 87.342 87.342 87.342s87.342-39.153 87.342-87.342v-105.411zM794.319-20.33h-73.788v105.411c0 72.282-58.73 132.518-132.518 132.518-72.282 0-132.518-58.73-132.518-132.518v-105.411h-82.823l3.011 590.306c0 9.035 7.53 22.588 15.058 27.106l180.706 117.46c6.024 4.517 19.577 4.517 25.601 0l185.223-118.965c7.53-4.517 15.058-18.071 15.058-27.106l-3.011-588.801z" />
<glyph unicode="&#xe959;" glyph-name="star" d="M512 789.333l94.811-265.48h246.523l-208.589-151.706 78.215-265.48-210.959 151.706-210.959-151.706 78.215 265.48-208.589 151.706h246.523z" />
<glyph unicode="&#xe95a;" glyph-name="stopwatch" d="M549.339 832l74.655-76.79h-74.655v-79.463c54.397-7.028 104.199-29.152 145.508-62.189v0l52.087 53.602 52.785-54.32-52.111-53.577c39.384-52.018 63.058-117.202 63.058-188.053 0-169.394-133.984-307.21-298.667-307.21s-298.667 137.816-298.667 307.21c0 156.352 114.231 285.531 261.327 304.537v0 79.463h-74.655l74.655 76.79h74.679zM512 601.605c-123.518 0-223.988-103.368-223.988-230.395 0-127.076 100.47-230.42 223.988-230.42s224.012 103.344 224.012 230.42c0 127.027-100.494 230.395-224.012 230.395zM549.323 524.798l0.013-87.068c22.315-13.285 37.331-38.107 37.331-66.53 0-42.416-33.442-76.815-74.679-76.815-41.213 0-74.655 34.398-74.655 76.815 0 28.405 14.997 53.213 37.281 66.505l0.029 87.093h74.679z" />
<glyph unicode="&#xe95b;" glyph-name="tick-circle" d="M511.988 746.667c188.197 0 341.346-153.124 341.346-341.321s-153.148-341.346-341.346-341.346c-188.197 0-341.321 153.148-341.321 341.346s153.124 341.321 341.321 341.321zM511.988 670.826c-146.378 0-265.48-119.102-265.48-265.48s119.102-265.48 265.48-265.48c146.403 0 265.48 119.102 265.48 265.48s-119.077 265.48-265.48 265.48zM598.942 508.013l53.648-53.624-178.518-178.518-102.677 102.653 53.648 53.624 49.029-49.029 124.87 124.894z" />
<glyph unicode="&#xe95c;" glyph-name="tick" d="M245.133 44.676c-1.984 0-1.984 0 0 0-9.922 0-17.859 3.968-21.829 9.922l-216.297 252.016c-9.922 11.906-9.922 31.749 3.968 41.672 11.906 9.922 31.749 9.922 41.672-3.968l194.47-228.203 726.281 726.281c11.906 11.906 29.765 11.906 41.672 0s11.906-29.765 0-41.672l-750.094-748.11c-5.952-5.952-13.891-7.938-19.843-7.938z" />
<glyph unicode="&#xe95d;" glyph-name="trolley" d="M1022.699 660.696c3.472 17.362 0 32.991-10.418 45.145s-26.044 19.1-43.409 19.1h-687.586l-27.781 135.434c-6.946 31.254-34.727 55.563-67.717 55.563h-159.743c-13.89 0-26.044-12.154-26.044-26.044s12.154-26.044 26.044-26.044h159.743c6.946 0 13.89-6.946 15.626-13.89l31.254-156.269c0 0 0 0 0 0l36.463-178.841c0 0 0 0 0 0l38.199-178.841c0 0 0 0 0 0l19.1-92.026c5.208-24.308 24.308-43.409 46.881-52.089-34.727-19.1-59.035-55.563-59.035-98.97 0-62.507 50.353-112.862 112.862-112.862s112.862 50.353 112.862 112.862c0 39.935-20.836 74.661-53.827 95.498h244.822c-31.254-20.836-53.827-55.563-53.827-95.498 0-62.507 50.353-112.862 112.862-112.862s112.862 50.353 112.862 112.862c0 39.935-20.836 74.661-53.827 95.498h83.343c13.89 0 26.044 12.154 26.044 26.044s-12.154 26.044-26.044 26.044h-539.998c-6.946 0-13.89 6.946-15.626 13.89l-12.154 62.507h536.525c31.254 0 60.771 24.308 65.981 55.563l27.781 145.851c0 0 0 0 0 0l27.781 142.379zM791.767 30.411c-32.991 0-60.771 27.781-60.771 60.771s27.781 60.771 60.771 60.771 60.771-27.781 60.771-60.771-27.781-60.771-60.771-60.771zM972.344 672.85c0 0 0-1.736 0-3.472l-24.308-125.016h-79.871l19.1 126.752h83.343c0 1.736 1.736 1.736 1.736 1.736zM677.169 367.257v126.752h130.224l-19.1-126.752h-111.124zM505.274 367.257l-13.89 126.752h133.696v-126.752h-119.806zM484.437 546.1l-13.89 126.752h152.797v-126.752h-138.906zM677.169 546.1v126.752h156.269l-19.1-126.752h-137.17zM418.456 672.85l13.89-126.752h-114.598l-26.044 126.752h126.752zM427.138 30.411c-32.991 0-60.771 27.781-60.771 60.771s27.781 60.771 60.771 60.771 60.771-27.781 60.771-60.771-27.781-60.771-60.771-60.771zM328.167 494.009h109.388l13.89-126.752h-98.97l-24.308 126.752zM901.155 367.257h-59.035l19.1 126.752h78.135l-22.572-114.598c-1.736-6.946-10.418-12.154-15.626-12.154z" />
<glyph unicode="&#xe95e;" glyph-name="stairs" horiz-adv-x="991" d="M260.581 74.893h-240.842c-10.528 0-19.741 9.212-19.741 19.741s9.212 19.741 19.741 19.741h221.101v211.889c0 10.528 9.212 19.741 19.741 19.741h215.836v219.785c0 10.528 9.212 19.741 19.741 19.741h221.101v215.836c0 10.528 9.212 19.741 19.741 19.741h234.261c10.528 0 19.741-9.212 19.741-19.741s-9.212-19.741-19.741-19.741h-215.836v-215.836c0-10.528-9.212-19.741-19.741-19.741h-219.785v-219.785c0-10.528-9.212-19.741-19.741-19.741h-215.836v-211.889c0-10.528-9.212-19.741-19.741-19.741zM365.867 784.26c-3.948 3.948-9.212 6.581-14.477 6.581l-165.826-1.316c-10.528 0-19.741-9.212-19.741-19.741s9.212-19.741 19.741-19.741c0 0 0 0 0 0l114.499 1.316-235.579-236.895c-7.897-7.897-7.897-19.741 0-27.637 3.948-3.948 9.212-5.265 14.477-5.265s10.528 1.316 14.477 5.265l238.21 238.21-3.948-117.131c0-10.528 7.897-19.741 19.741-19.741 0 0 0 0 0 0 10.528 0 19.741 7.897 19.741 19.741l5.265 161.877c0 5.265-2.632 10.528-6.581 14.477z" />
<glyph unicode="&#xe95f;" glyph-name="twitter" d="M853.333 681.003c-25.088-11.136-52.096-18.645-80.427-22.059 28.928 17.323 51.115 44.8 61.611 77.483-27.093-16.043-57.088-27.691-88.96-33.963-25.557 27.221-61.995 44.203-102.229 44.203-77.355 0-140.075-62.677-140.075-140.032 0-10.965 1.237-21.675 3.627-31.915-116.395 5.845-219.648 61.568-288.683 146.304-12.032-20.651-18.944-44.715-18.944-70.4 0-48.597 24.704-91.435 62.293-116.565-22.955 0.725-44.544 7.040-63.445 17.536v-1.792c0-67.84 48.299-124.459 112.299-137.301-11.691-3.243-24.064-4.949-36.864-4.949-9.045 0-17.792 0.896-26.325 2.517 17.792-55.637 69.547-96.128 130.773-97.237-47.915-37.589-108.245-59.947-173.909-59.947-11.264 0-22.4 0.64-33.408 1.92 61.995-39.723 135.595-62.891 214.699-62.891 257.621 0 398.507 213.419 398.507 398.464 0 6.101-0.128 12.117-0.427 18.133 27.392 19.755 51.157 44.416 69.888 72.491z" />
<glyph unicode="&#xe960;" glyph-name="unlock" d="M512 275.191c-30.916 0-56.009 25.786-56.009 57.611 0 31.8 25.093 57.586 56.009 57.586 30.94 0 56.009-25.786 56.009-57.586 0-31.825-25.069-57.611-56.009-57.611v0zM698.673 639.988c0 105.893-83.749 192.012-186.673 192.012s-186.649-86.12-186.649-192.012v-115.198h-93.348c-10.249 0-18.67-8.637-18.67-19.179v-134.426c0-169.666 133.743-307.185 298.667-307.185 164.948 0 298.667 137.519 298.667 307.185v134.426c0 10.542-8.421 19.179-18.67 19.179h-391.991v115.198c0 63.55 50.235 115.198 111.994 115.198s111.994-51.647 111.994-115.198h74.679z" />
<glyph unicode="&#xe961;" glyph-name="user" d="M830.456 206.85c-29.867 40.816-181.549 23.879-204.695 70.512-45.925 92.485-27.179 75.303 2.737 98.204 28.083 21.508 26.763 78.187 43.945 98.302 17.427 20.433 25.468 78.969 18.893 101.014-8.677 29.231-22.022 13.345-24.026 35.391-4.375 47.587 7.65 86.717-19.137 109.862-25.883 22.363-58.268 68.532-111.012 69.199-18.355 0.214-39.204-5.261-63.107-18.973-113.774 12.147-113.040-112.502-117.367-160.088-2.029-22.046-15.374-6.159-24.050-35.391-6.55-22.046 1.491-80.582 18.917-101.014 17.182-20.115 15.838-76.793 43.921-98.302 29.916-22.901 48.687-5.719 2.737-98.228-23.146-46.633-174.803-29.671-204.695-70.488-22.853-31.187-22.853-100.183-22.853-100.183h682.667c0 0 0 68.997-22.877 100.183z" />
<glyph unicode="&#xe962;" glyph-name="video-camera" d="M736.013 470.787v94.547c0 10.877-9.143 19.813-20.271 19.813h-104.827l-121.597 118.853h-280.236v-79.253h246.669l40.541-39.601h-348.022c-11.154 0-20.271-8.936-20.271-19.813v-396.187c0-10.902 9.117-19.813 20.271-19.813h567.472c11.128 0 20.271 8.911 20.271 19.813v94.547l202.654-114.36v435.813l-202.654-114.36z" />
<glyph unicode="&#xe963;" glyph-name="vimeo" d="M170.667 584.563l27.691-36.352c0 0 57.216 45.056 76.288 22.571 19.029-22.571 91.776-294.656 116.096-344.832 21.163-44.075 79.659-102.272 143.787-60.672 64.128 41.557 277.205 223.531 315.392 438.4 38.101 214.827-256.512 169.856-287.659-17.323 77.995 46.848 119.552-19.029 79.701-93.568-39.851-74.453-76.203-123.051-95.275-123.051-19.029 0-33.707 49.835-55.467 136.96-22.571 90.027-22.443 252.288-116.139 233.899-88.32-17.365-204.416-156.032-204.416-156.032z" />
<glyph unicode="&#xe964;" glyph-name="volume-high" d="M533.43 746.667v-640l-200.051 160h-40.015c-44.012 0-80.031 36.011-80.031 80.013v0 159.974c0 44.028 36.019 80.013 80.031 80.013v0h40.015l200.051 160zM759.741 652.953c124.79-124.762 124.79-327.785 0-452.573v0l-56.568 56.581c93.593 93.572 93.593 245.839 0 339.436v0zM634.907 568.107c77.968-78.002 77.968-204.878-0.026-282.881v0l-56.594 56.581c46.796 46.786 46.796 122.932 0 169.744v0z" />
<glyph unicode="&#xe965;" glyph-name="volume-low" d="M597.396 789.333v-682.667l-213.379 170.667h-42.681c-46.944 0-85.335 38.412-85.335 85.347v0 170.639c0 46.963 38.391 85.347 85.335 85.347v0h42.681l213.379 170.667zM705.631 598.87c83.163-83.202 83.163-218.537-0.027-301.739v0l-60.337 60.353c49.887 49.905 49.887 131.128-0.027 181.060v0z" />
<glyph unicode="&#xe966;" glyph-name="volume-off" d="M493.428 746.667v-640l-200.874 160h-40.326c-44.382 0-81.561 36.011-81.561 80.013v0 159.974c0 44.028 37.18 80.013 81.561 80.013v0h40.326l200.874 160zM838.957 584.947l57.043-56.556-102.595-101.717 102.595-101.717-57.043-56.556-102.595 101.717-102.595-101.717-57.069 56.556 102.621 101.717-102.621 101.717 57.069 56.556 102.595-101.717 102.595 101.717z" />
<glyph unicode="&#xe967;" glyph-name="close-circle" d="M270.521 646.797c133.157 133.157 349.811 133.157 482.951 0.017s133.157-349.811 0-482.968c-133.14-133.14-349.811-133.122-482.951 0.017s-133.14 349.794 0 482.934zM324.175 593.143c-103.555-103.555-103.555-272.072 0-375.626s272.072-103.555 375.626 0c103.572 103.572 103.555 272.072 0 375.626s-272.054 103.572-375.626 0zM458.329 512.653l53.671-53.671 53.671 53.671 53.654-53.654-53.671-53.671 53.671-53.671-53.654-53.654-53.671 53.671-53.671-53.671-53.654 53.654 53.671 53.671-53.671 53.671 53.654 53.654z" />
<glyph unicode="&#xe968;" glyph-name="close" d="M853.333 735.709l-53.624 53.624-287.697-287.697-287.697 287.697-53.648-53.624 287.722-287.697-287.722-287.697 53.648-53.648 287.697 287.697 287.697-287.697 53.624 53.648-287.697 287.697z" />
<glyph unicode="&#xe969;" glyph-name="youtube" d="M441.515 375.381v191.829l184.448-96.256-184.448-95.573zM846.507 600.405c0 0-6.656 47.019-27.136 67.755-25.941 27.221-55.040 27.349-68.395 28.928-95.531 6.912-238.848 6.912-238.848 6.912h-0.299c0 0-143.275 0-238.805-6.912-13.355-1.579-42.411-1.707-68.395-28.928-20.48-20.736-27.136-67.755-27.136-67.755s-6.827-55.253-6.827-110.464v-51.797c0-55.253 6.827-110.507 6.827-110.507s6.656-47.019 27.136-67.755c25.984-27.179 60.075-26.325 75.264-29.184 54.613-5.205 232.107-6.827 232.107-6.827s143.445 0.213 238.976 7.125c13.355 1.579 42.453 1.707 68.395 28.885 20.48 20.736 27.136 67.755 27.136 67.755s6.827 55.253 6.827 110.507v51.797c0 55.211-6.827 110.464-6.827 110.464v0z" />
<glyph unicode="&#xe96a;" glyph-name="youtube-logo" d="M728.619 471.296c68.864 0 124.715-55.893 124.715-124.757v0-100.267c0-68.821-55.851-124.715-124.715-124.715v0h-433.28c-68.864 0-124.672 55.893-124.672 124.715v0 100.267c0 68.864 55.808 124.757 124.672 124.757v0zM696.064 370.176c-15.488 0-28.032-4.736-37.803-14.123-9.813-9.429-14.677-21.717-14.677-36.651v0-77.611c0-16.683 4.523-29.739 13.355-39.168 8.875-9.557 21.077-14.251 36.523-14.251 17.195 0 30.165 4.437 38.741 13.312 8.747 9.003 13.056 22.4 13.056 40.107v0 8.875h-35.541v-7.893c0-10.155-1.195-16.683-3.413-19.712-2.304-2.987-6.315-4.48-12.032-4.48-5.504 0-9.429 1.749-11.733 5.248-2.219 3.541-3.371 9.856-3.371 18.944v0 32.555h66.091v44.075c0 16.384-4.267 28.928-12.757 37.675-8.448 8.704-20.608 13.099-36.437 13.099zM436.096 365.867h-34.56v-144.469c0-10.325 2.048-17.963 6.059-23.125 4.096-5.205 10.027-7.723 18.091-7.723 6.443 0 13.141 1.792 20.011 5.547 6.955 3.627 13.568 8.96 19.925 15.957v0-18.987h34.56v172.8h-34.56v-131.243c-3.243-3.755-6.784-6.827-10.709-9.301-3.883-2.432-7.125-3.584-9.6-3.584-3.2 0-5.589 0.853-7.083 2.773-1.408 1.792-2.133 4.736-2.133 8.832v0 132.523zM561.067 427.307h-34.944v-234.24h34.944v13.269c4.48-5.333 9.472-9.216 14.763-11.733 5.248-2.517 11.264-3.712 18.048-3.712 10.197 0 18.091 3.2 23.467 9.728 5.461 6.571 8.107 15.957 8.107 28.117v0 95.915c0 14.123-2.816 24.917-8.619 32.299-5.76 7.381-14.080 11.008-25.045 11.008-5.376 0-10.667-1.323-15.957-4.096-5.163-2.731-10.112-6.784-14.763-11.989v0 75.435zM386.389 427.307h-119.467v-34.048h40.235v-200.192h38.955v200.192h40.277v34.048zM575.505 340.535c4.608 0 8.235-1.493 10.752-4.48 2.475-3.029 3.627-7.424 3.627-13.312v0-89.216c0-5.547-1.024-9.429-2.944-11.904-2.005-2.475-5.12-3.712-9.344-3.712-2.944 0-5.675 0.683-8.32 1.877-2.688 1.195-5.419 3.371-8.235 6.101v0 107.691c2.389 2.389 4.693 4.181 7.125 5.291s4.864 1.664 7.339 1.664zM694.592 339.951c5.248 0 9.173-1.579 11.52-4.779 2.347-3.072 3.584-8.277 3.584-15.531v0-17.451h-30.507v17.451c0 7.253 1.152 12.459 3.584 15.531 2.389 3.2 6.315 4.779 11.819 4.779zM507.887 726.426c16.085 0 29.227-4.608 39.595-13.824 10.197-9.131 15.317-21.12 15.317-35.584v0-98.304c0-16.299-4.992-29.013-15.061-38.357-10.112-9.259-23.979-13.867-41.643-13.867-17.024 0-30.635 4.779-40.832 14.379-10.155 9.6-15.275 22.4-15.275 38.571v0 98.688c0 14.763 5.248 26.496 15.659 35.2 10.453 8.747 24.576 13.099 42.24 13.099zM633.156 721.6v-145.92c0-4.48 0.939-7.723 2.517-9.728 1.579-2.048 4.309-3.029 7.936-3.029 2.816 0 6.485 1.323 10.837 3.968 4.352 2.731 8.363 6.101 11.989 10.24v0 144.469h38.912v-190.336h-38.912v21.12c-7.125-7.765-14.592-13.739-22.4-17.749-7.723-4.011-15.232-6.144-22.528-6.144-9.045 0-15.744 2.901-20.352 8.619-4.523 5.589-6.827 14.080-6.827 25.429v0 159.061h38.827zM344.068 789.333l28.416-103.168h2.731l27.136 103.168h44.459l-50.987-150.997v-107.051h-43.733v102.229l-52.139 155.819h44.117zM505.967 693.444c-4.693 0-8.576-1.237-11.563-3.797-2.944-2.603-4.437-5.931-4.437-10.112v0-103.68c0-5.248 1.408-9.216 4.181-12.075 2.731-2.944 6.699-4.309 11.819-4.309 5.291 0 9.472 1.451 12.544 4.352 3.115 2.901 4.693 6.955 4.693 12.032v0 103.68c0 4.181-1.579 7.509-4.736 10.112-3.157 2.56-7.339 3.797-12.501 3.797z" />
<glyph unicode="&#xe96b;" glyph-name="fridge" horiz-adv-x="604" d="M151.13 724.889c-11.33 0-21.244 9.914-21.244 21.244v72.233c0 11.33 9.914 21.244 21.244 21.244s21.244-9.914 21.244-21.244v-72.233c0-11.33-9.914-21.244-21.244-21.244zM530.705 959.999h-456.056c-26.91 0-49.571-22.661-49.571-49.571v-861.123c0-24.078 16.996-43.907 39.657-48.155 8.498-36.825 42.489-65.151 82.147-65.151h55.237c39.657 0 73.649 26.91 82.147 63.735h46.739c9.914-36.825 42.489-63.735 82.147-63.735h55.237c41.073 0 76.481 29.743 83.563 69.399 15.58 8.498 26.91 24.078 26.91 43.907v861.123c1.416 28.326-21.244 49.571-48.155 49.571zM74.649 917.509h454.64c4.248 0 7.082-2.832 7.082-7.082v-226.612h-468.802v226.612c0 4.248 2.832 7.082 7.082 7.082zM202.119-25.762h-55.237c-18.412 0-35.408 11.33-42.489 26.91h140.216c-7.082-15.58-22.661-26.91-42.489-26.91zM468.387-25.762h-55.237c-18.412 0-35.408 11.33-42.489 26.91h140.216c-7.082-15.58-22.661-26.91-42.489-26.91zM530.705 43.639h-456.056c-4.248 0-7.082 2.832-7.082 7.082v590.606h468.802v-590.606c1.416-4.248-2.832-7.082-5.666-7.082zM151.13 598.837c-11.33 0-21.244-9.914-21.244-21.244v-110.474c0-11.33 9.914-21.244 21.244-21.244s21.244 9.914 21.244 21.244v110.474c0 11.33-9.914 21.244-21.244 21.244z" />
<glyph unicode="&#xe96c;" glyph-name="washing" horiz-adv-x="833" d="M417.22 163.052c-160.893 0-293.216 132.323-293.216 293.216s130.82 293.216 293.216 293.216 293.216-130.82 293.216-293.216-132.323-293.216-293.216-293.216zM417.22 704.376c-136.834 0-248.105-111.272-248.105-248.105s111.272-248.105 248.105-248.105 248.105 111.272 248.105 248.105-111.272 248.105-248.105 248.105zM752.539 960h-670.638c-28.57 0-52.628-24.058-52.628-52.628v-824.013c0-27.067 19.548-48.118 45.109-51.125v-4.51c0-51.125 40.599-91.724 91.724-91.724s91.724 40.599 91.724 91.724v4.51h308.252v-4.51c0-51.125 40.599-91.724 91.724-91.724s91.724 40.599 91.724 91.724v4.51h1.503c28.57 0 52.628 24.058 52.628 52.628v822.509c1.503 28.57-22.555 52.628-51.125 52.628zM81.901 914.889h670.638c4.51 0 7.519-3.007 7.519-7.519v-36.089h-685.676v36.089c0 4.51 3.007 7.519 7.519 7.519zM214.224 26.219c0-25.563-21.051-46.615-46.615-46.615s-46.615 21.051-46.615 46.615v4.51h93.227v-4.51zM705.925 26.219c0-25.563-21.051-46.615-46.615-46.615s-46.615 21.051-46.615 46.615v4.51h93.227v-4.51zM752.539 75.84h-670.638c-4.51 0-7.519 3.007-7.519 7.519v742.814h685.676v-742.814c0-4.51-3.007-7.519-7.519-7.519z" />
<glyph unicode="&#xe96d;" glyph-name="lightning" d="M358.564-63.998c-3.196 0-7.992 1.598-11.188 3.196-9.59 4.794-14.384 15.982-11.188 27.172l87.905 361.211-295.682 30.368c-9.59 1.598-17.582 6.394-20.778 15.982-3.196 7.992-1.598 17.582 4.794 25.572l533.826 553.006c7.992 7.992 19.18 9.59 28.77 4.794s14.384-15.982 12.786-25.572l-79.913-377.195 287.692-19.18c9.59 0 17.582-6.394 20.778-15.982 3.196-7.992 1.598-19.18-4.794-25.572l-535.425-551.408c-4.794-4.794-11.188-6.394-17.582-6.394zM181.153 401.102l273.306-28.77c6.394 0 12.786-4.794 17.582-9.59 3.196-6.394 4.794-12.786 3.196-19.18l-73.521-303.674 436.331 450.716-262.118 17.582c-6.394 0-12.786 3.196-17.582 9.59s-6.394 12.786-4.794 19.18l68.726 319.657-441.126-455.51z" />
<glyph unicode="&#xe96e;" glyph-name="wheelchair" d="M1003.164 174.884h-92.279c-10.419 56.559-61.023 101.209-120.558 101.209-2.976 0-5.954 0-8.93 0l-95.255 318.513c-7.442 25.303-32.744 44.651-59.535 44.651h-409.303l-23.813 181.582c-4.464 23.813-28.279 46.14-56.559 46.14h-84.837c-28.279 0-52.093-23.813-52.093-52.093v-107.163c0-11.907 10.419-22.325 22.325-22.325s22.325 10.419 22.325 22.325v107.163c0 4.464 2.976 7.442 7.442 7.442h84.837c4.464 0 10.419-4.464 11.907-10.419l35.722-269.396c-105.675-34.232-183.070-133.953-183.070-250.047 0-145.861 117.582-263.442 263.442-263.442s263.442 117.582 263.442 263.442c0 2.976 0 4.464 0 7.442h199.442l10.419-35.722c-43.162-20.837-72.93-62.511-72.93-111.628 0-68.466 55.069-123.535 123.535-123.535 61.023 0 110.14 43.162 120.558 101.209h92.279c11.907 0 22.325 10.419 22.325 22.325s-8.93 22.325-20.837 22.325zM223.255 593.117h401.861c5.954 0 14.883-5.954 16.373-11.907l16.373-52.093h-276.838c-35.722 17.861-74.418 26.791-116.094 26.791-11.907 0-23.813-1.488-35.722-2.976l-5.954 40.186zM264.929 73.674c-120.558 0-218.791 98.233-218.791 218.791s98.233 218.791 218.791 218.791c37.21 0 72.93-8.93 104.186-26.791v-1.488h1.488c66.977-37.21 113.116-108.652 113.116-190.512-1.488-120.558-98.233-218.791-218.791-218.791zM522.419 343.070c-10.419 55.069-38.698 102.697-77.396 139.907h226.234l41.674-139.907h-190.512zM788.838 73.674c-43.162 0-78.884 35.722-78.884 78.884s35.722 78.884 78.884 78.884 78.884-35.722 78.884-78.884-35.722-78.884-78.884-78.884z" />
<glyph unicode="&#xe96f;" glyph-name="townhouse" d="M510.036 888.035c-46.478 0-83.959-37.482-83.959-83.959v-46.478c0-23.988 19.491-43.478 43.478-43.478h82.46c23.988 0 43.478 19.491 43.478 43.478v46.478c-1.499 46.478-38.981 83.959-85.458 83.959zM549.017 759.097h-77.962v44.977c0 20.99 17.992 38.981 38.981 38.981s38.981-17.992 38.981-38.981v-44.977zM405.088 601.675c-41.979 0-64.468-49.476-65.969-55.472-4.497-10.495-7.497-28.486-7.497-40.48v-49.476c0-20.99 17.992-38.981 38.981-38.981h71.965c20.99 0 38.981 17.992 38.981 38.981v49.476c0 11.994-2.998 29.985-7.497 40.48-4.497 5.998-26.987 55.472-68.967 55.472zM435.073 462.242h-59.971v43.478c0 5.998 1.499 17.992 4.497 22.489 4.497 11.994 16.493 26.987 25.488 26.987s20.99-16.493 25.488-28.486c2.998-5.998 4.497-16.493 4.497-22.489v-41.979zM405.088 376.783c-41.979 0-64.468-49.476-65.969-55.472-4.497-10.495-7.497-28.486-7.497-40.48v-49.476c0-20.99 17.992-38.981 38.981-38.981h71.965c20.99 0 38.981 17.992 38.981 38.981v49.476c0 11.994-2.998 29.985-7.497 40.48-4.497 5.998-26.987 55.472-68.967 55.472zM435.073 237.352h-59.971v43.478c0 5.998 1.499 17.992 4.497 22.489 4.497 11.994 16.493 26.987 25.488 26.987s20.99-16.493 25.488-28.486c2.998-5.998 4.497-16.493 4.497-22.489v-41.979zM614.984 376.783c-41.979 0-64.468-49.476-65.969-55.472-4.497-10.495-7.497-28.486-7.497-40.48v-49.476c0-20.99 17.992-38.981 38.981-38.981h71.965c20.99 0 38.981 17.992 38.981 38.981v49.476c0 11.994-2.998 29.985-7.497 40.48-4.497 5.998-26.987 55.472-68.967 55.472zM644.97 237.352h-59.971v43.478c0 5.998 1.499 17.992 4.497 22.489 4.497 11.994 16.493 26.987 25.488 26.987s20.99-16.493 25.488-28.486c2.998-5.998 4.497-16.493 4.497-22.489v-41.979zM614.984 601.675c-41.979 0-64.468-49.476-65.969-55.472-4.497-10.495-7.497-28.486-7.497-40.48v-49.476c0-20.99 17.992-38.981 38.981-38.981h71.965c20.99 0 38.981 17.992 38.981 38.981v49.476c0 11.994-2.998 29.985-7.497 40.48-4.497 5.998-26.987 55.472-68.967 55.472zM644.97 462.242h-59.971v43.478c0 5.998 1.499 17.992 4.497 22.489 4.497 11.994 16.493 26.987 25.488 26.987s20.99-16.493 25.488-28.486c2.998-5.998 4.497-16.493 4.497-22.489v-41.979zM836.876-20.522h-53.973c0 2.998 1.499 4.497 1.499 7.497v631.191c0 2.998 0 4.497-1.499 7.497h29.985c16.493 0 28.486 7.497 35.983 17.992 7.497 11.994 7.497 26.987-1.499 40.48l-83.959 154.424c-11.994 22.489-38.981 37.482-64.468 37.482h-2.998v31.484c0 28.486-23.988 52.474-52.474 52.474h-271.368c-28.486 0-52.474-23.988-52.474-52.474v-29.985h-10.495c-25.488-1.499-50.975-17.992-62.969-40.48l-74.963-152.925c-7.497-13.493-5.998-28.486 0-40.48 7.497-11.994 20.99-17.992 35.983-17.992h31.484c0-2.998-1.499-4.497-1.499-7.497v-629.692c0-2.998 0-4.497 1.499-7.497h-47.977c-11.994 0-22.489-10.495-22.489-22.489s10.495-22.489 22.489-22.489h644.686c11.994 0 22.489 10.495 22.489 22.489s-8.996 20.99-20.99 20.99zM286.645 817.569c2.998 7.497 14.992 14.992 23.988 14.992h8.996v-73.464c0-11.994 10.495-22.489 22.489-22.489s22.489 10.495 22.489 22.489v149.927c0 4.497 2.998 7.497 7.497 7.497h274.366c4.497 0 7.497-2.998 7.497-7.497v-149.927c0-11.994 10.495-22.489 22.489-22.489s22.489 10.495 22.489 22.489v73.464h2.998c7.497 0 20.99-7.497 23.988-14.992l79.461-148.428h-590.711l71.965 148.428zM471.055-20.522v89.956c0 20.99 17.992 38.981 38.981 38.981s38.981-17.992 38.981-38.981v-89.956h-77.962zM593.995-20.522v89.956c0 46.478-37.482 83.959-83.959 83.959s-83.959-37.482-83.959-83.959v-89.956h-133.435c-4.497 0-7.497 2.998-7.497 7.497v631.191c0 4.497 2.998 7.497 7.497 7.497h439.285c4.497 0 7.497-2.998 7.497-7.497v-629.692c0-4.497-2.998-7.497-7.497-7.497h-137.933z" />
<glyph unicode="&#xe970;" glyph-name="studio" d="M909.776 712.736h-67.191c-25.533 0-47.034-21.501-47.034-47.034v-67.191c0-25.533 21.501-47.034 47.034-47.034h67.191c25.533 0 47.034 21.501 47.034 47.034v67.191c0 25.533-21.501 47.034-47.034 47.034zM916.494 598.509c0-4.031-2.687-6.72-6.72-6.72h-67.191c-4.031 0-6.72 2.687-6.72 6.72v67.191c0 4.031 2.687 6.72 6.72 6.72h67.191c4.031 0 6.72-2.687 6.72-6.72v-67.191zM1024.001 128.169c0 4.031 0 8.063-1.344 10.75v772.703c0 25.533-21.501 47.034-47.034 47.034h-928.587c-25.533 0-47.034-21.501-47.034-47.034v-314.458c0-10.75 9.407-20.157 20.157-20.157s20.157 9.407 20.157 20.157v314.458c0 4.031 2.687 6.72 6.72 6.72h928.587c4.031 0 6.72-2.687 6.72-6.72v-146.478c-1.344 0-4.031 1.344-6.72 1.344h-376.273c-25.533 0-47.034-21.501-47.034-47.034v-181.418c0-25.533 21.501-47.034 47.034-47.034h382.992v-315.801c-1.344 0-4.031 0-5.376 0h-165.291c0 0 0 0 0 0h-520.062c-25.533 0-47.034-21.501-47.034-47.034v-134.384c0-5.376 1.344-12.094 2.687-16.126h-200.231c-4.031 0-6.72 2.687-6.72 6.72v317.145c0 10.75-9.407 20.157-20.157 20.157s-20.157-9.407-20.157-20.157v-317.145c0-25.533 21.501-47.034 47.034-47.034h928.587c25.533 0 45.69 20.157 47.034 45.69 1.344 4.031 1.344 8.063 1.344 12.094v133.040zM599.35 531.318c-4.031 0-6.72 2.687-6.72 6.72v181.418c0 4.031 2.687 6.72 6.72 6.72h376.273c2.687 0 4.031 0 6.72 1.344v-196.2h-382.992zM982.343 132.2v-142.447c-1.344-1.344-2.687-2.687-5.376-2.687h-134.384c-4.031 0-6.72 2.687-6.72 6.72v141.103h141.103c2.687 0 4.031-1.344 5.376-2.687zM647.729 134.887h147.821v-147.821h-147.821v147.821zM284.894 128.169c0 4.031 2.687 6.72 6.72 6.72h315.801v-141.103c0-4.031-2.687-6.72-6.72-6.72h-309.082c-4.031 0-6.72 2.687-6.72 6.72v134.384zM444.809 542.069c-57.784 40.314-137.071 25.533-177.387-32.253s-25.533-137.071 32.253-177.387c21.501-14.783 47.034-22.846 72.567-22.846 8.063 0 14.783 1.344 22.846 2.687 33.596 5.376 63.16 24.189 81.974 52.41 40.314 57.784 25.533 137.071-32.253 177.387zM443.465 387.528c-13.438-18.814-33.596-32.253-56.441-36.284s-45.69 1.344-65.847 14.783c-38.971 26.877-49.721 81.974-21.501 120.945 17.47 24.189 44.347 37.627 71.223 37.627 17.47 0 34.94-5.376 49.721-16.126 41.659-26.877 51.066-81.974 22.846-120.945zM251.297 615.979c-9.407 6.72-21.501 4.031-28.22-5.376l-53.753-77.943c-6.72-9.407-4.031-21.501 5.376-28.22 4.031-2.687 8.063-4.031 12.094-4.031 6.72 0 12.094 2.687 16.126 8.063l53.753 77.943c5.376 10.75 2.687 22.846-5.376 29.564zM505.282 274.647c4.031-2.687 8.063-4.031 12.094-4.031 6.72 0 12.094 2.687 16.126 8.063l53.753 77.943c6.72 9.407 4.031 21.501-5.376 28.22s-21.501 4.031-28.22-5.376l-53.753-77.943c-6.72-8.063-4.031-20.157 5.376-26.877z" />
<glyph unicode="&#xe971;" glyph-name="terrace" d="M967.020 616.416l-418.718 330.922c-21.949 16.883-50.651 16.883-72.6 0l-417.030-315.727c-15.195-11.819-23.637-28.703-23.637-47.274v-82.73c0-32.080 27.013-59.093 59.093-59.093h391.703v-202.606h-212.736c-13.507 0-25.325-11.819-25.325-25.325s11.819-25.325 25.325-25.325h214.424v-185.721h-104.679c-13.507 0-25.325-11.819-25.325-25.325s11.819-25.325 25.325-25.325h261.699c13.507 0 25.325 11.819 25.325 25.325s-11.819 25.325-25.325 25.325h-104.679v185.721h205.982c13.507 0 25.325 11.819 25.325 25.325s-11.819 25.325-25.325 25.325h-207.67v202.606h391.703c32.080 0 59.093 27.013 59.093 59.093v69.223c0 18.573-8.442 35.456-21.949 45.586zM283.227 594.467v-99.615h-187.409c-5.064 0-8.442 3.376-8.442 8.442v82.73c0 3.376 1.688 5.064 3.376 6.754l379.885 288.712-160.396-209.358c-15.195-21.949-27.013-54.029-27.013-77.666zM333.877 493.164v99.615c0 13.507 6.754 35.456 15.195 45.586l136.759 178.969v-325.858h-151.954zM695.191 493.164h-155.332v329.234l138.447-175.591c8.442-10.13 15.195-32.080 15.195-43.898v-109.745zM938.317 501.607c0-5.064-3.376-8.442-8.442-8.442h-184.033v109.745c0 23.637-11.819 57.405-27.013 75.978l-155.332 192.475 371.444-295.466c1.688-1.688 3.376-3.376 3.376-6.754v-67.535zM234.262 148.735h-121.564c-5.064 0-8.442 3.376-8.442 8.442v192.475c0 13.507-11.819 25.325-25.325 25.325s-25.325-11.819-25.325-25.325v-388.327c0-13.507 11.819-25.325 25.325-25.325s25.325 11.819 25.325 25.325v138.447c3.376 0 5.064-1.688 8.442-1.688h121.564c5.064 0 8.442-3.376 8.442-8.442v-128.316c0-13.507 11.819-25.325 25.325-25.325s25.325 11.819 25.325 25.325v128.316c0 32.080-27.013 59.093-59.093 59.093zM960.266 374.978c-13.507 0-25.325-11.819-25.325-25.325v-192.475c0-5.064-3.376-8.442-8.442-8.442h-121.564c-32.080 0-59.093-27.013-59.093-59.093v-128.316c0-13.507 11.819-25.325 25.325-25.325s25.325 11.819 25.325 25.325v128.316c0 5.064 3.376 8.442 8.442 8.442h121.564c3.376 0 5.064 0 8.442 1.688v-138.447c0-13.507 11.819-25.325 25.325-25.325s25.325 11.819 25.325 25.325v388.327c0 13.507-11.819 25.325-25.325 25.325z" />
<glyph unicode="&#xe972;" glyph-name="terraced" d="M1004.106 440.723c-10.583 0-19.844-9.261-19.844-19.844v-201.087c0-3.968-2.645-6.615-6.615-6.615h-58.21v363.808c0 5.292-1.323 9.261-2.645 14.553l97.897 60.855c9.261 5.292 11.906 18.521 6.615 27.782s-18.521 11.906-27.782 6.615l-96.575-60.855c-3.968 2.645-6.615 6.615-10.583 7.938l-145.523 80.699c-18.521 10.583-46.303 10.583-66.146 0l-149.492-82.022c-3.968-2.645-7.938-5.292-11.906-7.938l-156.106 88.637c-18.521 10.583-46.303 10.583-64.824 1.323l-146.845-78.054c-3.968-2.645-7.938-5.292-11.906-7.938l-101.866 58.21c-9.261 5.292-21.166 2.645-26.459-7.938-5.292-9.261-2.645-21.166 7.938-26.459l101.866-58.21c-1.323-3.968-1.323-9.261-1.323-13.229v-367.776h-63.501c-3.968 0-6.615 2.645-6.615 6.615v201.087c0 10.583-9.261 19.844-19.844 19.844s-23.813-9.261-23.813-19.844v-201.087c0-25.136 21.166-46.303 46.303-46.303h931.347c25.136 0 46.303 21.166 46.303 46.303v201.087c0 10.583-9.261 19.844-19.844 19.844zM545.046 596.831l149.492 82.022c6.615 3.968 19.844 3.968 27.782 0l145.523-80.699c6.615-3.968 13.229-14.553 13.229-22.491v-363.808h-96.575v112.45c0 43.657-35.719 79.376-79.376 79.376s-79.376-35.719-79.376-79.376v-112.45h-92.605v363.808c-1.323 6.615 5.292 18.521 11.906 21.166zM743.486 213.179h-79.376v112.45c0 21.166 17.198 39.687 39.687 39.687s39.687-17.198 39.687-39.687v-112.45zM149.489 580.955c0 6.615 6.615 18.521 13.229 21.166l146.845 78.054c6.615 3.968 21.166 3.968 27.782 0l157.43-89.96c-1.323-3.968-1.323-9.261-1.323-13.229v-362.485h-92.605v112.45c0 43.657-35.719 79.376-79.376 79.376s-79.376-35.719-79.376-79.376v-112.45h-91.282v366.453zM359.836 213.179h-79.376v112.45c0 21.166 17.198 39.687 39.687 39.687s39.687-17.198 39.687-39.687v-112.45zM324.117 477.765c39.687 0 72.761 33.074 72.761 72.761s-33.074 72.761-72.761 72.761-72.761-33.074-72.761-72.761 33.074-72.761 72.761-72.761zM324.117 583.601c18.521 0 33.074-14.553 33.074-33.074s-14.553-33.074-33.074-33.074-33.074 14.553-33.074 33.074 14.553 33.074 33.074 33.074zM707.767 477.765c39.687 0 72.761 33.074 72.761 72.761s-33.074 72.761-72.761 72.761-72.761-33.074-72.761-72.761 33.074-72.761 72.761-72.761zM707.767 583.601c18.521 0 33.074-14.553 33.074-33.074s-14.553-33.074-33.074-33.074-33.074 14.553-33.074 33.074 14.553 33.074 33.074 33.074z" />
</font>
</defs>
</svg>
